&title=pAlingeneSis
&artist=Daily天利
&first=0
&des=Dororo
&lv_5=14
&inote_5=(185)
{1},
{16}E5,,,,3xh[8:1]/6xh[8:1],,,,,,,,1s5b[4:3],,,,
{16},,,,,,,,,,,,,,,,
{16}6V82v7V13[2:5]/4h[4:3],,,,,,,,,,,,,,,,
{16}5h[4:3],,,,,,,,,,,,,,,,
{16}6h[4:3],,,,,,,,,,,,,,,,
{16}D8,,,,,,C,,,,,,D4,,,,
{16}3V17v2V86[2:5]/5h[4:3],,,,,,,,,,,,,,,,
{16}4h[4:3],,,,,,,,,,,,,,,,
{16}3h[4:3],,,,,,,,,,,,,,,,
{16}45,,D4,D6,E5,,,,E7fh[2:1]/E3,,,,,,,,
{16}2xh[4:1],,,,1,,,,3V52[2:1]/8,,,,1,,,,
{16},,,,1,,,,3-5[4:1]/8,,,,,,,,
{16}7h[4:1],,,,8,,,,6V47[2:1]/1,,,,8,,,,
{16},,,,8-4[4:1],,1,,,,,,,,,,
{16}3/4xh[128:1],,3/4xh[96:1],,2/5xh[64:1],,2/5xh[48:1],,1^4[8:1]*^6[8:1]/6xh[32:1],,1/6xh[24:1],,,,,,
{16}6/5xh[64:1],,6/5xh[48:1],,4xh[32:1]/7,,4xh[24:1]/7,,3xh[16:1]/8>6[4:1],,3xh[12:1]/8^6b[8:1],,,,,,
{16},,,,,,,,,,,,,,,,
{16},,,,,,,,1,8,1,8,1,8,1,8,
{16}1b,,2,4,3,,6,5,6,,2,4,3,5,4,6,
{16}5,,2,4,3,,6,5,6,,2,4,3xh[8:1],,8x,8x,
{16}1,,7,5,6,,3,4,3,,7,5,6,4,5,3,
{16}4,,7,5,6z2[8:3],,3,4,,,,,,,,,
{16}1,8,1,,1,8,1,,2,1,2,,2,1,2,8,
{16}3,4,3,,3,4,3,,2,5,2,,7xh[8:1],,3x,3x,
{16}8,1,8,,8,1,8,,7,8,7,,7,8,7,1,
{16}6h[8:5],,,,,,2h[4:1],,,,,,,,26,,
{16}1-6[8:1],,6q3[8:1],,1,,5,,,,4,,26,,,,
{16}1-6[8:1]/3p6[8:1],,,,13,,,,,,{24}5x,4x,3x,{16}6,,7,7,
{16}1-6[8:1],,6V82[8:1],,1,,4,,,,5,3,8b,,,,
{16}17,6,5,4,2,3,4,5,7x,1x,7x,1x,7x,1x,7x,1x,
{16}8-3[8:1],,3p6[8:1],,8,,4,,,,5,,37,,,,
{16}8-3[8:1]/6q3[8:1],,,,86,,,,,,46,,7,,2,2,
{16}8-3[8:1],,3V17[8:1],,8,,5,,4,,3x/6x,,2x>7[4:1]/7x,,1x/8x,,
{16},,,,,,,,3x,4,3,6x,5,6,4x,5,
{16}2-5[8:1],,,,12,,8-4[8:1],,4,,38,,,,1,,
{16}2^5[8:1],,3,,12,,,,8,,3/7^5[8:1],,,,4,3,
{16}2-6[8:1],,,,12,,8,,5-8[8:1]/7,,4,,35,,,,
{16}2^5[8:1],,3,,12,,,,6,,37,,4,,6,5,
{16}7-4[8:1],,,,87,,1-5[8:1],,5,,61,,,,8,,
{16}7^4[8:1],,6,,87,,,1x,1x,,6/2^4[8:1],,,,5,6,
{16}7-3[8:1],,,,78,,,,4-1[8:1],,6,,47,,,,
{32}2v3v4[2:1]/8v7v6b[2:1],37,{16}46,,,,,,,,,,,,,,,
{16}2-5[8:1],,,,26,,7-3[8:1],,8,,3-7[8:1]/7,,,,2,,
{16}2^5[8:1],,,,28,,,1x,1x,,3-6[8:1]/8,,,,36,,
{16}7-4[8:1],,,,73,,2-6[8:1],,6-3-5[4:1],,7,,8,,,,
{16}7-3[8:1],,1,,37,,,,25,,36,,47,,8x,8x,
{16}2h[8:1],,4,,3,5,,5,3h[8:1],,1,,8,3,5,4,
{16}7h[8:1],,5,,6,4,,4,6h[8:1],,8,,1,6,4,5,
{16}3,7,3,7,2,6,2,6,1,5,1,5,8q5qq3[4:3],4q1qq7b[16:11],8,4,
{16},,,,,,,,,,,,,,,,
{16}3/4xh[16:1],,3/4xh[16:1],,3/4xh[16:1],,3/4xh[16:1],,3/4xh[16:1],,3/4xh[16:1],,3/4xh[16:1],,3/4xh[16:1],,
{16}2/4xh[16:1],,2/4xh[16:1],,2/4xh[16:1],,2/4xh[16:1],,2/4xh[16:1],,2/4xh[16:1],,2/4xh[16:1],,2/4xh[16:1],,
{16}1/4xh[16:1],,1/4xh[16:1],,1/4xh[16:1],,1/4xh[16:1],,1/4xh[16:1],,1/4xh[16:1],,1/4xh[16:1],,1/4xh[16:1],,
{16}8/4xh[16:1],,8/4xh[16:1],,8w4[3:1]/4xh[16:1],,8/4xh[16:1],,,,,,,,,,
{16}6/5xh[16:1],,6/5xh[16:1],,6/5xh[16:1],,6/5xh[16:1],,6/5xh[16:1],,6/5xh[16:1],,6/5xh[16:1],,6/5xh[16:1],,
{16}7/5xh[16:1],,7/5xh[16:1],,7/5xh[16:1],,7/5xh[16:1],,7/5xh[16:1],,7/5xh[16:1],,7/5xh[16:1],,7/5xh[16:1],,
{16}8/5xh[16:1],,8/5xh[16:1],,8/5xh[16:1],,8/5xh[16:1],,8/5xh[16:1],,8/5xh[16:1],,8/5xh[16:1],,8/5xh[16:1],,
{16}1b-5[8:1]/4b-8[8:1],,,,,,,,{12}2,4,3,7,5,6,
{16}4b-2[12:1],,,{32}4/7x,6x,{16},,8b-6[12:1],,,{32}3x/8,2x,{16},,4b-2[12:1],,,{32}4/7x,6x,
{16},,8b-6[12:1],,,{32}3x/8,2xv3-5b[32:9],{16},,,,,,,,,,
{16}6b-8[12:1],,,{32}6/3x,4x,{16},,2b-4[12:1],,,{32}7x/2,8x,{16},,6b-8[12:1],,,{32}6/3x,4x,
{16},,2b-4[12:1],,,{32}7x/2,8x,{16},,5bw1[8:1],,,{32}4x/6x,5x,{16},,,,
{16}3b-5[12:1],,,{32}3/8x,1x,{16},,7b-1[12:1],,,{32}4x/7,5x,{16},,3b-5[12:1],,,{32}3/8x,1x,
{16},,7b-1[12:1],,,{32}4x/7,5x,{16},,3b-5[12:1],,,{32}3/8x,1x,{16},,7b,,
{32}2x,3,4,,8x,7,6,,{16}1xh[16:1],,1xh[16:1],,{32}7x,6,5,,1x,2,3,,{16}8xh[16:1],,8xh[16:1],,
{16}1x,7,1,7,2x,6,3,5,4x,4,4,4,4x<3[1:4],4,4,4,
{16},,,,,,,,,,,,,,,,
{16},,,,,,,,,,,,,,,,
{16},,,,,,,,,,,,,,,,
{16}Chf[1:1],,,,,,,,,,,,,,,,
{16},,,,,,,,,,,,,,,,
{16},,,,,,,,,,,,,,,,
{16},,,,,,,,,,,,,,,,
{16},,,,,,,,,,,,,,,,
{16}3<7[2:1],,,,,,,,E2/B2,,,,,,,,
{16}6>2[2:1],,,,,,,,B6/B7,,,,,,,,
{16}3<7[2:1],,,,,,,,E5/D5,,,,,,,,
{16}3pp2[2:1]/6>2[2:1],,,,,,,,,,,,,,,,
{16}8h[2:3]/4b,,,,,,,,,,,,,,,,
{16},,,,,,,,6,,,,34,,,,
{16}1h[2:3]/5b,,,,,,,,,,,,,,,,
{16},,,,,,,,2-7b[8:1],,,,,,,,
{16}65,,7,,7,,34,,2,,2,,54,,6,3,
{16}6,,72,,3,,3,,16,,5,,83,,4,,
{16}27,,6,5,7,,3,4,2,,6,5,8,,3,4,
{16}1,7,2,6,1,7,3,5,2,6,3,5,{32}1,8,7,6,5,4,3,2,
{16}1h[1:1]/5b<2-6<4[4:3],,,,,,,,,,,,,,,,
{16},,,,2x/6x,,,,3,5,3,5,2,6,1,7,
{16}2^5[8:1],,,,{24}62,7,8,{16}1^6[8:1],,5,,4-8[8:1],,3,,2V41[4:1],,
{16}1,,7,,6,,5-8[8:1],,2-5[8:1],,5,,2,,1,,
{16}3^8[8:1]/7,,,,{24}73,6,5,{16}4^7[8:1],,,,{24}84,1,2,{16}3,,,,
{16}4/8-4[8:1],,,2,8,,2,,35,,26,,17,,{24}6x,2x,6x,
{16}3x^8[8:1],,,,{24}37,6,5,{16}4,,15,,2,4,3-5[8:1],,17,,
{16}3/5,,,,48,,7,5,6-4[8:1],,28,,46,,,,
{16}1^4[8:1]/5,,,,{24}18,7,6,{16}5,,2b/1b,,,5b/4b,,,8b/7b,,
{16}1-5[8:1]/6,,25,,,,,,6,5,7,4,8,3,1,2,
{16}7^4[8:1],,,,{24}37,2,1,{16}8^3[8:1],,4,,5-1[8:1],,6,,7V58[4:1],,
{16}8,,2,,3,,4,,5x,1x,4x,8x,3,7,2,6,
{32}1b,8,7,6,5,4,3,2,{16}51,,3xb-5[8:1]/7xb-1[8:1],,,,3bV14b[4:1]/7bV58b[4:1],,,,3b/7b,,
{16},,,,3x/7x,,{24}28,37,46,{16}5b,,,,1,8,2,7,
{16}3^6[8:1],,,,{24}36,7,8,{16}1-5[8:1],,,,14,,2,,8-4[8:1],,
{16}5,,78,,6^3[8:1],,,,1w5[8:1]/6,,2,,1,,,,
{16}8,,62,,1,,73,,8,4,6,4,1,3,5,3,
{16}8bpp5[2:1]*qq4[2:1],,,,,,,,,,,,,,,,
{16}Chf[2:3],,,,,,,,E3h[1:1],,,,,,,,
{16}E7h[2:1],,,,,,,,,,,,1xh[16:1]/8xh[16:1],,,,
{32}2xb/7xb,3x/6x,{16}4x/5x,,,2,1,2,1,3,8,4,7,5,6,4,5,
{16}3x,2,1,8,4x,5,6,7,1x,2,3,4,1x,8,7,6,
{16}2,4,1,4,3,5,2,5,4,6,3,6,5,7,4,7,
{16}2x,3,4,5,3x,4,5,6,4x,5,6,7,5x,6,7,8,
{16}1h[8:1]/5h[8:1],,,,4h[8:1]/8h[8:1],,,,3h[8:1]/7h[8:1],,,,2h[8:1]/6h[8:1],,,,
{16}1h[8:1]/5h[8:1],,,,4h[8:1]/8h[8:1],,,,5x/7x,,,2x/4x,,,1x/8x,,
{16}2h[16:1],5h[16:1],3h[16:1],4h[16:1],{32}2b,1,{16}8,,,{16}7h[16:1],4h[16:1],6h[16:1],5h[16:1],{32}7b,8,{16}1,,,
{16}3h[16:1],6h[16:1],4h[16:1],5,{32}2b-5[8:1]/7b-4[8:1],18,{16},,,2-8[8:1]/7-1[8:1],,,,,,,,
{16}2h[16:1],6h[16:1],8h[16:1],7h[16:1],{32}2b,3,4,5,{16},,{16}7h[16:1],3h[16:1],1h[16:1],2h[16:1],{32}7b,6,5,4,{16},,
{32}1/6b,2,3,4,{16}7b,,{32}8/3b,7,6,5,{16}2b,,{32}1/6b,2,3,4,5,6,7,8,{40}1,2,3,4,5,6,7,8x,1x/7x,2x/6x,
{16}3xbqq4[2:3]/5xb,,,,,,,,,,,,,,,,
{16}7-5[2:1],,,,,,,,,,,,,,,,
{16}3x/E7,,4,,5,,6,,3x/E8,,4,,5,,6,,
{16}3x/E1,,4,,5,,6,,3x/E2,,4,,5,,6,,
{16}3xbq4[4:3]/E3,,,,,,,,,,,,,,,,
{16}6q7b[4:3],,,,,,,,,,,,,,,,
{16}1q2[4:3]*-7^8-6^7-5^6-4^5-3[4:8],,,,,,,,,,,,,,,,
{16},,,,,,,,,,,,,,,,
{16},,,,,,,,2,8,2,8,2,8,2,8,
{16}1,1,2,8,1,1,2,8,1,1,1,1,1-5[8:1],1,1,1,
{16},,,,,,,,,,,,,,,,
{16},,,,,,,,,,,,,,,,
E
