&title=サラマンドラの踊り子
&artist=清風明月
&first=0.163
&des_5=ccy
&lv_5=13+
&inote_5=(127)
{16}6h[16:6],,,5h[16:3],,,,,2h[16:6],,,4h[16:3],,,,,
{16}7h[16:6],,,8h[16:3],,,,,5h[16:6],,,3h[16:3],,,,,
{8}8-5[8:1],,1-4[8:1],,{16}6<2[16:3],,,2xq6[8:1],,,5,,
{8}5xh[2:1],,,,7,7,6b/4b,,
{16}5/3h[16:3],,,4h[16:3],2xh[8:1],,,,1/7h[16:3],,,5h[16:3],6xh[8:1],,,,
{16}4/2h[16:3],,,1h[16:3],3xh[8:1],,,,8/4h[16:3],,,6h[16:3],2xh[8:1],,,,
{8}7/1-4[8:1],,1/8-5[8:1],,{16}8/3>7[16:3],,,7xp3[8:1],,,4,,
{16}4xbh[8:3],,,2b,,,1b,,{12}8/7,8/7,8/7,2xb-4[8:1]/6xb,,,
{16}2/5,,,5h[16:3],2x-8[8:1],,,,2/7,,,7h[16:3],2x-4[8:1],,,,
{16}2/5,,,5h[16:3],2xpp1[4:1],,,,2/8,,,,8x-6>5[8:1],,,,
{16}8/2,,,3h[16:3],8x-2>3[8:1],,,,8/6,,,5h[16:3],8x-6>5[8:1],,,,
{16}8/2,,,3h[16:3],8x<2[4:1],,,,8/6,,,,7x-5[8:1],,,,
{16}7/4,,,4h[16:3],7x-1[8:1],,,,7/2,,,2h[16:3],7x-5[8:1],,,,
{16}7/4,,,4h[16:3],7xqq8[4:1],,,,7/1,,,,1x-3<4[8:1],,,,
{16}1/7,,,6h[16:3],1x-7<6[8:1],,,,1/3,,,4h[16:3],1x-7[8:1]*-6[8:1],,,,
{16}1b-3[8:1]*-4[8:1],,,,1b,,,5bx/6bx,,4x<7[8:1],3x,2x,,,,,
{8}1/2,8,7>5[4:1],6h[4:1],7-3-7b[4:1],,,,
{8}8,1,2<4[4:1],3h[4:1],2-6b[8:1],,,,
{8}1/8>4[4:1],,4<8[4:1],,8qq1[4:1],1,2,3,
{8}4qq5b[4:1],,,{16}6x<4[4:1],7x,8xh[8:3],,,,,,,,
{8}5/6,4,3<8[4:1],2,1x,2,3,4,5/3,4,5>8[4:1],6,7x,6,5,{16}4,3,
{8}5<1[4:1],,{16}1qq6[8:3],,,,5>2[8:1],,,5x,,,,,
{24}8,1,8,1,8,1,8,1,8,1,8,1,{16}7,5,6,4,5,3,4,2,
{8}8<5[8:1],8-4b[8:1],8-2-7-3[8:3],,,,E6/B5f/E5,,
{8}1>4[8:1],1-5b[8:1],1-7-2-6[8:3],,,,E4/B4f/E5,,
{16}7,8,7,,2,1,2,,3/4-8[8:1],,5/6-1[8:1],,4b,,6b,,
{16}3,2,3,,7,8,7,,2/8w4b[8:1],,1/7,,8b,,,,
{8}7<4[8:1],7>2b[8:1],7qq3[8:3],,,,B8/E1f/B1,,
{8}2>5[8:1],2<7b[8:1],2-6[8:1],,,,8/7-2[8:1],1h[4:1],
{8}7b,,3/4-1[8:1],2h[4:1],4b,,7/8-5b[8:1],6h[2:1],
{8}8b-3b[8:1],,8b,{16},7/5,,6,4,7,3V52[4:1],8,2,1h[16:3],
{8}3b,,6V47[4:1],8h[4:1],6b,,2<3[8:3],4h[2:1],,,,,
{16}6,5,7,4,8,3,1,2,{12}8b,4b,7b,3b,6b,2b,5bw1[8:1],,,,,,
{16}5/3h[16:3],,4,4h[16:3],2x,,E3,,1/7h[16:3],,5,5h[16:3],6x,,E7,,
{16}4/2h[16:3],,1,1h[16:3],3x,,E4,,8/4h[16:3],,6,6h[16:3],2x,,E3,,
{8}7/1-5[8:1],2,1/8-4[8:1],7,{16}8/3V17[16:3],,,7xp3[8:1],,,4,,
{16}4xbh[8:3],,,,B3,,B5,,1/7,,1/7,,2b/6b,,3/5,,
{16}4/6h[16:3],,5,5h[16:3],7x,,E7,,8/2h[16:3],,4,4h[16:3],3x,,E3,,
{16}5/7h[16:3],,8,8h[16:3],6x,,E6,,1/5h[16:3],,3,3h[16:3],7x,,E7,,
{8}2/8-4[8:1],7,8/1-5[8:1],2,{16}1/6V82[16:3],,,2xq6[8:1],,,5,,
{16}5xbh[8:3],,,7b,,,8b,,{12}1/2,1/2,1/2,7xb-5[8:1]/3xb,,,
{16}7/4,,,4h[8:1],7x-1[8:1],,E4,,7/2,,,2h[8:1],7x-5[8:1],,E3,,
{16}7/4,,,4h[8:1],7xqq5<8[4:1],,E4,,7/1,,,,1x>2-4[8:1],,2x,,
{16}1/7,,,6h[8:1],1x<8-6[8:1],,8x,,1/3,,,4h[8:1],1x>2-4[8:1],,2x,,
{16}1/7,,,6h[8:1],1x>3-5<7[4:1],,8x,,1/3,,,,2x-4[8:1],,,,
{16}2/5,,,5h[8:1],2x-8[8:1],,E6,,2/7,,,7h[8:1],2x-4[8:1],,E7,,
{16}2/5,,,5h[8:1],2xpp4>1[4:1],,E6,,2/8,,,,8x<7-5[8:1],,7x,,
{16}8/2,,,3h[8:1],8x>1-3[8:1],,1x,,8/6,,,5h[8:1],8x-2[8:1]*-3[8:1],,7x,,
{16}8b-6[8:1]*-5[8:1],,,,8b,,,4bx/3bx,,5x>2[8:1],6x,7x,,,,,
{8}8/7,1,2<1-7<4[4:1],3h[4:1],2-6-2b[4:1],,,,
{8}1,8,7>8-2>5[4:1],6h[4:1],7-3b[8:1],,,,
{8}8/1<5[4:1],,5>1[4:1],
,1pp8[4:1],8,7,6,
{8}5pp4b[4:1],,,{16}3x>5[4:1],2x,1xh[8:3],,,,,,,,
{8}4/3,5,6>1[4:1],7,E1/B8/B1,7,6,5,4/6,5,4<1[4:1],3,E2/B1/B2,3,4,{16}5,6,
{8}4>8[4:1],,{16}8pp3[8:3],,,,4<7[8:1],,,4x,,,,,
{24}1,8,1,8,1,8,1,8,1,8,1,8,{16}2,4,3,5,4,6,5,7,
{16}1x<6-4[4:1],2x,3x,,1-7-2-6b[8:3],,2,,,,5x,,E4/B4f/E5,,,,
{16}8x>3-5[4:1],7x,6x,,8-2-7-3b[8:3],,7,,,,4x,,E6/B5f/E5,,,,
{16}2,1,2,,7,8,7,,6/5-1[8:1],,4/3-8[8:1],,5b,,3b,,
{16}6,7,6,,2,1,2,,7/1w5b[8:1],,8/2,,1b,,,,
{16}2x<7-5[4:1],3x,4x,,2pp6b[8:3],,3,,,,7x,,B1/E1f/B8,,,,
{16}7x>2-4[4:1],6x,5x,4x,7-3b[8:1],,6,,,,,,1/2-7[8:1],,8h[4:1],,
{8}2b,,6/5-8[8:1],7h[4:1],5b,,2/1>4b[8:1],3h[2:1],
{8}1b<6b[8:1],,1b,{16},2/4,,3,5,2,6-4<5-7[4:1],1,7,8h[16:3],
{8}6b,,3-5>4-2[4:1],1h[4:1],3b,,7-1-3<6[8:3],5h[2:1],,,,,
{16}3,4,2,5,1,6,8,7,{12}1b,5b,2b,6b,3b,7b,4bw8[8:1],,,,,,
{16}5xh[8:1]/6xh[8:1],,,4xh[8:1]/7xh[8:1],,,{24}5,6,5,6,,4,,8,,3,,5,,1,,
{16}8xh[8:1]/7xh[8:1],,,1xh[8:1]/6xh[8:1],,,7/8,,,7,1,5,2,8,4,7,
{16}5xh[8:1]/6xh[8:1],,,4xh[8:1]/7xh[8:1],,,5/6,,3,3,4,2,2,8-3-5[16:3],1,1,
{16}7xbh[8:1],,,6xbh[8:1],,,7/8,,1h[8:1],,2,2h[8:1],,3,3,4,
{16}4xh[8:1]/3xh[8:1],,,5xh[8:1]/2xh[8:1],,,4/3,3h[8:1],,5h[8:1],,1h[8:1],,7,7,,
{16}1xh[8:1]/2xh[8:1],,,8xh[8:1]/3xh[8:1],,,2/1,1-6-4[16:3],,3h[8:1],,,,,3,3,
{16}4xh[8:1]/3xh[8:1],,,5x/2xh[8:1],,5x,4/3,2h[8:1],,8h[8:1],,4h[8:1],,6,6,,
{16}1xbh[8:1]/2xbh[8:1],,,8xhb[8:1]/3xbh[8:1],,,2,7,{24}1,8,1,8,1,8,1>4b[8:1],8,1,8,1,8,
{16}1x<7[8:1],,6,6x,1-3b[8:1],,E6hf[8:1],,1-6[8:1],,5,5,1>4b[8:1],,E5hf[8:1],,
{16}1x<7[8:1],,6,6x,1-3b[8:1],,E6hf[8:1],,1-6[8:1],,5,5,1>4b[8:1]*-4[8:1],,E5,,
{16}1,,,E6h[16:3]/B5hf[16:3],4x>1b[8:1]*-1[8:1],,,,4,,,E8h[16:3]/B8hf[16:3],1x,,,,
{16}1x,2,7,6,2,3,6,5,1,2,3,4,5/8x<5b[8:1],,,,
{16}8x>2[8:1],,3,3x,8-6b[8:1],,E4hf[8:1],,8-3[8:1],,4,4,8<5b[8:1],,E5hf[8:1],,
{16}8x>2[8:1],,3,3x,8-6b[8:1],,E4hf[8:1],,8-3[8:1],,4,4,8<5b[8:1]*-5[8:1],,E5,,
{16}8,,,E4h[16:3]/B4hf[16:3],5x<8b[8:1]*-8[8:1],,,,5,,,E2h[16:3]/B1hf[16:3],8x,,,,
{16}8x,7,6-8b[8:1],2,3,4,6b,,1x,2,3-1b[8:1],7,6,5,3b,,
{16},7,4,6,3,5,2,4,{12}1bw5b[8:1],1b,1b,1b,,,
{16}8x-2>3[8:1],,,8h[16:3],,,,,8x<7-5[8:1],,,8h[16:3],,,,,
{16}8x>1-3[8:1],,,8h[16:3],,,,,8x-6>5[8:1],,,8h[16:3],,,,,
{16}2,1,3,,6-4-2<7[8:3],5,7,,,,,,B6h[8:1],,,,
{16}3,4,2,,7-1-3<6[8:3],8,6,,,,,,B7h[8:1],,,,
{16}2x<7-5[4:1],3x,4x,,2pp6b[8:3],,3,,,,7x,,B1/E1f/B8,,,,
{16}7x>2-4[4:1],6x,5x,4x,7-3b[8:1],,6,,,,,,1/2-7[8:1],,8h[4:1],,
{8}2b,,6/5-8[8:1],7h[4:1],5b,,2/1,3,
{16}4bh[8:1]/5bh[8:1],,,1bh[8:1]/8bh[8:1],,,4b/5b,,2,7,4,5,3,6,1,8,
{16}2x,3x,4x>1[8:1],,5/6-4-7-2b[8:3],,4,,6-3[8:1],,,,E7f,,,,
{16}7x,6x,5x<8[8:1],,4/3-5-2-7b[8:3],,5,,3-6[8:1],,,,E3f,,,,
{16}1,2,3/B7h[8:3],,2<8-3-5[8:3],3,4/B6hf[8:1],,2-6b[8:1],,,,,,,,
{16}8,7,6/B2h[8:3],,7>1-6-4[8:3],6,5/B3hf[8:1],,7-3b[8:1],,,,,,,,
{16}8x,7x,6x<1[8:1],,4-6-3-8b[8:3]/3,,6,,4-7[8:1],,,,E4f,,,,
{16}1x,2x,3x,4x,5x-2[8:1]/6-1b[8:1],,4/7,,E6f,,,,8/7-2[8:1]*-5[8:1],,1,,
{8}7b,,3/4-1[8:1]*-6[8:1],2,4b,,7/8<5b[8:1]*v5[8:1],6,
{8}8b>3b[8:1]*v3[8:1],,8b,{16},7/5,,6,4,7,3-5>4-2[4:1],8,2,1,
{16}3b,,8,,6x-4<5-7[4:1],6x,8,,6b,,1,,2x-8-6>3[8:3],2x,4h[2:1],,,,,,,,,,
{16}6,5,7,4,8,3,1,2,{12}8b,8b,8b,8b/4b-7[8:1]*-1[8:1],4b,4b,4bw8[8:1],,,,,,
{16}4/6h[16:3],,5,5h[16:3],7x,,E7,,8/2h[16:3],,4,4h[16:3],3x,,E3,,
{16}5/7h[16:3],,8,8h[16:3],6x,,E6,,1/5h[16:3],,3,3h[16:3],7x,,E7,,
{8}2/8-4[8:1],7,8/1-5[8:1],2,{16}1/6V82[16:3],,,2xq6[8:1],,,5,,
{16}5xbh[8:3],,,,B6,,B4,,8/2,,8/2,,7b/3b,,6/4,,
{16}5/3h[16:3],,4,4h[16:3],2x,,E3,,1/7h[16:3],,5,5h[16:3],6x,,E7,,
{16}4/2h[16:3],,1,1h[16:3],3x,,E4,,8/4h[16:3],,6,6h[16:3],2x,,E3,,
{8}7/1-5[8:1],2,1/8-4[8:1],7,{16}8/3V17[16:3],,,7xp3[8:1],,,4,,
{16}4xbh[8:3],,,2b,,,1b,,{12}8/7,8/7,8/7,2xb<7q5-3-1[4:5]/6xb,,,
{12}E7h[48:49]/E6h[48:54]/B6h[48:51]/A6h[48:46],,,,,,,,,,,,,,,,,,,,,,,,
E
