&title=金色の羊
&artist=葉月ゆら
&first=0
&des_1=Sheep
&des_2=Sheep
&des_3=Sheep
&des_4=Sheep
&des_5=Sheep
&lv_5=13
&des_6=Sheep
&des_7=Sheep
&des=Sheep
&inote_5=(55.33333){4},,,,,,,,,,,8qq2[16:3],
2,4V27[6:1],6h[6:1],{12}5q4[48:7],,3,
{6}4>5[6:1],{12}6,5pp8[16:3]*qq2[16:3],,,{4}5,{12}6/1<4[8:1],{24}2,7,{12}2,
3/1V37[8:1],2,2,1/5V71[8:1],{24},6,6,,{6}1/5p1[48:5],{24}3,4,{12}5q1[48:5],{24},,7,6,
{8}5<5[4:1],{24}2,3,4,{4}5w1[6:1],,6h[4:3],
5,4,3,1h[4:3],
8,7qq2[24:5],{12},,,3h[6:1],,4,
{6}5h[6:1],{12}2,1h[6:1],,7,{6}6<4[6:1],{12}4,5pp6[48:7]*qq4[48:7],,,{4}5-1[24:5],
5h[4:1],{24}2,2,3,3,4,4,{12}5/1<5[48:5],{24}2,6,{12}2,
{6}1/7p4[6:1],{12}4,4>7[8:1],3,2,{4}1p6[6:1],{24}6>1[8:1],6,,7,7,,{12}8q3[6:1],
8,{24},3,{12}3<2[6:1]*>4[6:1],2,2,,,,3/8>4[48:5],{24}7,1,{12}7,
{6}8/2q5[6:1],{12}5,5<2[8:1],6,7,{4}8q3[6:1],{8}3<8[8:1],{24}2,2,,{12}1p6[6:1],
3,2,1,{24},,,,7-5[16:1]/2-4[16:1],8,1,2-6[16:1]/7-3[16:1],1,8,{8}7b>4[8:1]/2b<5[8:1],2b/7b,
{6}7b/2b,{12}6/3,8/1>8[6:1],{24}2,3,5-1[12:1],6,{6}1V74[8:1],{12}5,4<8[48:5]*>8[48:5],{24}2,3,{12}5,
{6}4pp3[48:7],{24}2,3,{12}4/8pp5[6:1],{24},,6,7,{12}8/4<8[12:1],3,2,1p4[12:1],{24},2,1,,3,
3,2,2,1,1,{12}8b/5b<4[6:1],{24}6,7,1p5[12:1],2,{6}5p7[8:1],{12}1,7V53[48:5]*V13[48:5],{24},4,5,6,
{6}7,{24}2,1,{12}8<5[12:1],{24}2,3,{12}4q1[12:1],{8}8/1>8[4:1],{24}3,4,,,,,,,,{4}1h[4:1],
{24}3b,4,5,8b/6b,5,4,{4}3b/1b-5[16:1]*-5[16:1],{24}6<1[12:1],6,,,,,,,{12}6h[6:1],
,{4}2>5[12:1],{12},2h[6:1],{24},,8p3[12:1],8,,,,,,,{12}8h[6:1],
,{4}4p7[12:1],4h[12:1],{12}1-3[16:1]/5V71[8:1],{24}3V51[8:1],7,,5,
{4}1,{12}8-5[12:1]*-3[12:1],{24}3V14[8:1]/5V74[8:1],6/2,,7/1,{4}8,{12}3V51[48:7]/5-7[96:7],{24}7V13[8:1],1,,3,
{4}5,{24}7-5[24:1],7,1-3[24:1],1,8-4[16:1],8,{12}7b,1b,8b,1-6[16:1],{24}6-2[16:1],7,{12}2-4[16:1],
{4}1,{12}5-1[16:1],{24}3>8[16:1],2,{12}7<4[16:1],5,3,7,3h[12:1],{24}5,4/6h[12:1],,1,
{12}8b/7,3b/2,4b/5,8h[12:1],{24}5,4/7,,3,{36}2/5>5[36:17],6,7,1,2,3,8,7,6,5,{72},,,,,,,,,,,,,,,,{24}4,
4,3,3,2,2,{4}1b-5[4:1]*-5[4:1],{24},,,,,,,,,,,,4<6[8:1],
3,2,1,8,7,{4}6,{24}4<7[8:1],3,2,1,8,7,{4}6,
{24}4<8[6:1],3,2,1,8,7,{4}6,{24}4pp4[6:1]*p4[6:1],3,2,1,8,7,,,,,,,8qq1[6:1],
7,3,2,6,5,{4}4h[6:1],{24}7qq8[6:1],6,2,1,5,4,{4}3h[6:1],
{24}6,5,1,8,4,3,7,7,4/8,4/8,1/5,1/5,{12}2b/6b,{24}3,2b/4b,,6,{36}7b/5b,7,7,3,3,3,6/2,,,{12}5>7[48:7]/1-6[16:1],
{24}3,4,1-5[12:1],8,{12}1/5V74[8:1],,1,2<6[12:1]*>6[12:1],{24}1,2,{12}3,2pp1[48:7],{24},,4,3,
{6}2/5pp3[6:1],{24}7,6,{12}5/2>6[12:1],1,8,{8}7p3[12:1],{24}8,7,,1,1,2,2,3,3,
{12}1b>8[6:1]/4b-7[12:1],{24}7,6,4-1[12:1],3,{12}4/1V73[8:1],,4,{8}5<4[48:7]*q4[48:7],{24}8,1,2,{12}5,{24},,1,2,
{12}3p7[12:1],{24}5,6,{12}7qq5[12:1],3/5<4[4:1],{24},6,7,,,,,,,,{4}8h[4:1],
{24}6b,5,4,3b/1b-5[8:1]*-5[8:1],4,5,{4}6b/8b,{12}1,4/1,6/1,1/3h[24:1],1/7h[24:1],1/2h[24:1],
{24}8b<5[12:1],1,2,3,4<7[12:1],3,2,2,1,1,{12}8,{24}1q7[8:1],2,3,4,5,6,{12}7,{24},,8,7,
6-4[18:1],6,4,3,2-6[16:1],2,{12}6,{24}8,1,{12}2,{24}7<2[6:1]*qq2[6:1],8,1,2,1,8,{4}7,
{24}1>4[12:1],8,7,6,5-2[12:1],6,7,7,8,8,{12}1,{24}8p1[8:1],7,6,5,2,3,{12}4V68[8:1]*-7[12:1],{24},,6,5,
{6}4V28[1.0843##0.5769]*-1[1.0843##0.3846],{24}2,3,(52){8}4z8[1.1538##1.5754],{24}7,6,5,(48)4,7,(45)3,6,(42)2,5,{4}1bw5[0.9524##1.9048],
E
