&title=ADDICT!ON(DJMAX Edit)
&artist=아이리 칸나
&first=-0.25
&lv_4=12
&des_4=MisakaGu
&lv_5=13
&des_5=MisakaGu
&inote_4=
(128){4},,,,,,,,{1}4h[1:1]/5h[1:1],
{8},,,,,,,3/6,
{1}3h[2:3]/6h[2:3],
{8},,,,,,,7,
{4}2,8z4[2:1],{8}1,,,3x,
{4}2x,1s5[2:1],{8},6,7x,8,
{4}8-4[4:1],3,{8}2,,,4/2,
{4}2h[2:1]/4h[2:1],,,3/5,
4/6,5,3/4-1[8:1],5,
6/5-8[8:1],4,3/4-1[8:1],5,
2bx/8bx,1,7/8-5[8:1],1,
2/1-4[8:1],8,7/8-5[8:1],1,
{8}4/3,5,{4}3/6,{8}5/6,4,{4}3/5,
{8}3/4,2,{4}1/8,{8}6/5,7,{4}8/1,
{8}1/2,3,{4}5/4,{8}8/7,6,{4}4/5,
4b/5b,7b/5b,2b/4b,1b/8b,
Cf,{8}4,4,{4}5/3,{8}5,5,
{4}4/6,3/5,5/7,4/2q6[8:1],
{8},,5x,5,{4}4/6,{8}4,4,
{1}3/5<4[4:3],
{4}5xh[4:3],B5,,B5,
3h[4:3],B3,,B3,
6h[4:3],B6,,B6,
{1}2qq5[8:5],
{4}6,5/7,3,{8}2/4,3/4,
,,{4}6/5,{8},5/6,7,8h[8:9],
,,{4}4,3,2q5[8:3],
{16},,,,,,,,6,5,{8}6,7x,7x,
{4}4b/7b-4[8:1],7,3-8[8:1],3,
7/1,2/8,{2}1-5[8:1]/2-5[8:1],
7-4[8:1]/8-4[8:1],{8}3/5,6,{4}1x/8x,
{2}2-5[8:1]/1-5[8:1],{8}4/6,3,{4}1x/8x,
1b/8b-3[8:1],8,1-6[8:1],1,
{8}5/4,6,7/3,2,{2}8q5[8:1]/1>4[8:1],
{4}6/5,7/8,1/2,3-8[8:1]/4-7[8:1],
3/4,6/1,{2}3x-1[8:1]/8x-4[8:1],
{16}3x/5x,,,4,{8}6,6,{4}5/7h[4:1],1h[4:1],
8-4[8:1],2-6[8:1],8V64[4:1],3h[2:1],
,E5,B6,E8/B7,
{1}B7/B6/B2/B3/Ch[1:1],
{4}7xqq4[2:1],4,3,2,
1xpp4[2:1],4,5,6,
{2}4v1[8:1]/6v1[8:1],2v5[8:1]/8v5[8:1],
{4}4/6,3/5,{2}2-5[8:1]/7-4[8:1],
{4}2b/7b,{12}6,5,6,3,4,3,6,5,7,
{4}3h[4:1],{12}7,8,6,2,1,3,4>1[8:1]/5<8[8:1],,,{4}4b/5b,
{12}3,4,3,6,5,6,3,4,2,
6,5,7,2,4,1,7,5,8,2qq5[1:1],,,{1}Ch[4:3],
{4}7qq4[4:3],B4/E4,B3,B2,
1pp6[2:1],E6/B5,E7,E8,
8x/1x,2x/7x,3x-8[8:1]/6x-1[8:1],3b/6b,
{8}2h[2:1]/7h[2:1],,,,,,,4/2,
2h[2:1]/4h[2:1],,,,,3/5,{4}6bv1[8:1]/4bv1[8:1],
4/6,2/8,1/7,3/8,
{8}1/6,{16}6,4,,4,{8}5,{2}3h[4:1]/6h[4:1],
{8}3pp8[2:1],,,E8,E7,E6,,,6qq1[2:1],
,,E2,E3,E4,,,{4}3x/4x,
5/6,7/8,1/2,
{8}3,{16}3,4,,4,{8}2,{2}2xw6[8:1],
{4}3/4,6/5-8[8:1],3,1/2-5[8:1],
7,8/7-4[8:1],2,2/5,
{2}4>1[8:1]/7-4[8:1],2-5[8:1]/5<8[8:1],
{4}4x/6x,3/5,7/5,4/2w6[8:1],
2b,7x/8x,1/2,4/5,
3/6,8<5[8:1]/1p4[8:1],,8/1-5[8:1]*s5[8:1],
1bx,3b/7b,1b/5b,2b/6b,
E3h[4:3],E7h[2:1],{2}Cfh[2:1],
{4},4xh[4:1]/5xh[4:1],,2xh[4:1]/7xh[4:1],
,2-5[8:1],7-4[8:1],3-8[8:1],
7-4[8:1],{8}7x,8x,{4}1x-5b[8:1],{8}6x,7x,
{4}8x-4b[8:1],E3h[4:3],5,6,
{1}7,
E
&inote_5=
(128){4},{8},,,,,,,,,,,,,,4h[16:3]/5h[16:3],
,,3,{2}3-5[8:1],
{6}6,5/7,{24},{8}7,7-5[8:1],,,4b,
3bv5[4:1],,,6,{4}6,7/5x,
{6}7p4[8:3],4,{24},{8}2,2,,,2/4,
{4}4/2qq5[2:1],E6,E7,{8}8pp6[2:1],E5/B5,
{4}E4/B3,B4,2>5[8:1],{8}6,7,
{4}8<5[8:1],8x/4>1[8:1],4/7v4[8:1]*p3[8:1],7,
{2}C,{16}3,6,4,5,{4}2/7,
8/1-5[8:1],1/2,1/8-4[8:1],8/7,
{8}8/1-5[8:1],2,{4}1/3,{8}1/8-4[8:1],7,{4}6/8,
4b/5b-2[8:1],5/6,5/4-7[8:1],3/4,
{8}4/5-2[8:1],6,{4}7/5,{8}5/4-7[8:1],3,{4}2/4,
{8}5b/6bp4[4:1],3,{4}6,1-5[8:1],1x,
{8}4/3q5[4:1],6,{4}3,8-4[8:1],8x,
{8}6/2-8[8:1],3,2/6-4[8:1],7,6/2-8[8:1],3,{4}2/6-1[8:1],
6b/3b-8[8:1],3b/5b-1[8:1],5b/4bw8[8:1],4b,
6bh[8:1]/2bh[8:1],{8}4,4,{16}3/5,,,3,{8}4,2,
{4}5/1<5[4:1],5>1[4:1],1<5[4:1],5>1[4:1],
{8},,5,5,{16}6/4,,,6,{8}5,7,
{4}8/4>1s5[4:3],Ch[4:3],,,,4/3h[2:1],
,B3,
5h[4:3],B5,,B5,
2h[4:3],B2,,B2,
6h[4:1],4h[4:1],2h[4:1],1-5[8:1],
1b/8b,4/6,3/5,{8}4/6,7,
{4}2v5[8:1]/8v5[8:1],2/8,{8}4/6,3,2/1,8/1,
{4}7/8,4/5,2pp5[2:1]/8qq5[2:1],8b/2b,
{24},,,,,,,,,,,,4,5,4,5,,,{8}2/7,7/2,
1b>4[8:1],3,7-5[8:1],6,8-4[8:1],1,2-5[8:1],3,
8b<6[8:1],6,4-2[8:1],3,5-1[8:1],6,7-4[8:1],8,
{4}7b/2b-5[8:1],2,{16}7v4[8:1],8,,8,{8}7,3,
{16}2-5[8:1],1,,1,{8}2,8,{4}4b>1[8:1]/8b<5[8:1],4/8,
{8}5b<8[8:1],7,2-4[8:1],3,1-5[8:1],8,7-4[8:1],6,
1b>3[8:1],3,5-7[8:1],6,4-8[8:1],3,2-5[8:1],1,
{4}2b/7b-4[8:1],7,{16}2,4,,7,{8}5,1/8,
{16}4/5,3/6,,4/5,{8}2>4[12:1]/7<5[12:1],1/8,{2}2-8b[12:1]/7-1b[12:1],
{4}4bp8[8:1]/3bv1[8:1],4<7[8:1],{8}4/2-4[8:1],1,6-1[8:1],7,
{4}3<6[8:1],3-7[8:1]/8-5[8:1],8>3[8:1],5/8<5[8:1],
8b-2[8:1]/3b-7[8:1],3/8,4bw8[8:1],4,
{6}6<1[8:1],5,4,3>8[8:1],4,5,
{4}7b/6b>3[8:1],{8}6/1-4[8:1],2,1/5-7[8:1],6,5/2v5[8:1]*v7[8:1],1,
{4}2b,{8}4/6-1[8:1],7,6/2<7[8:1],3,2/5-2[8:1]*-8[8:1],6,
{4}5b,5/1>4[8:1],{8}1<6[8:1],8,1>4[8:1],3,
1-5[8:1],7,{4}1w5[8:1],1,3h[6:1]/7h[6:1],
5b/1b,{12}3,5,5,4,6,6,5,7,7,
{4}2h[6:1]/8h[6:1],{12}7,3,3,8,4,4,1w5[8:1],,,{4}1b,
{12}2/8,2/8,3,4,6/5,7,8,2,3,
4/5,{24}6,8x,7x,8x,{12}7x,2,3/5,4,5/7,8,1/2-6[12:1],,,{4}2qq5[4:3],
B5/E6,B6,{8}E7,E8,
{4}8xpp6[2:1],A5,{8}A4,A3,A2,A1,
{4}5pp4[2:1],3,2,1-5[12:1],
8x/1x,4x/6x,2x-5[12:1]/4-8[12:1],2b/4b,
Cfh[4:7],{8}E8,E7,E6,E5,,5x,
6x,{16}7x,7x,,8x,{8}8x,7x-3[12:1],7x,,,2b/4b,
{16}3v8[8:1],4,{8}2,5,6-4b[8:1],7,6-1[8:1]/2-7[8:1],3,
{4}6/2>5[8:1],{8}2/8-3b[8:1],7,{4}8/1w5[8:1],1b,
{8}3b/7b,{16}3,4,{8}2h[4:3],E5,E4,E3,E2,E1,
{16}7,8,{8}6h[8:5],,E1,E8,E7,E6,{16}3,4,
{8}2-5[8:1],1,2/7-1b[8:1],6,{4}7-4[8:1]/3-6b[8:1],3/7,
{16}7,4,,2,{8}5,1/8,{2}3-8b[12:1]/6-1b[12:1],
{8}6b/3b-5[8:1],2,3/6-3[8:1],7,6/2-6[8:1],1,2/7-5[8:1],8,
7/4-2[8:1],3,4/8-3[8:1],7,8/4-1b[8:1],5,4/6-3[8:1],7,
{2}6/2bw6[8:1],8bw4[8:1],
{6}6v1[8:1],5,4,3v8[8:1],4,5,
{4}6b/7b>2[8:1],{8}7/4-1[8:1],3,4/8-6[8:1],7,8/3v8[8:1]*v6[8:1],2,
{4}3b,{8}1/7-4[8:1],6,7/3<6[8:1],2,3/8-3[8:1]*-5[8:1],7,
{4}8b,4bv7[8:1]*-1[8:1],4b,2b>4[8:1]/6b-4[8:1],
6b/2b-8[8:1],{8}2b/7b-4[8:1],3b-6[8:1],7b,3b,7b,2b,
{48}1b/8b,2/7,3/6,4/5,,,,,,,,,{8}3x/5x,2/4,{4}3x/1x-5[8:1],{8}1x/8x,7,
{4}4x/6xp4[4:1],{8}3,2,1-5[8:1],5-1[8:1],{4}1,
7b-3[8:1],{8}7/3,2,{4}1-5[8:1],{8}1x/8x,7,
{4}4x/6xp4[4:1],{8}3,2,1-5[8:1],5w1[8:1],{4}1,
E
