&title=SECRET;WEAPON
&artist=NOMA w/ Apo11o program ft.Yukacco
&first=0.105
&des=De11AY/feat.FNG
&des_5=De11AY/feat.FNG
&lv_5=13+
&inote_5=(190){4},{1},{4},{16}8,
1,8,1,{4}2x-5[16:1]/7xqq4[2:1],
{2}2b,{4}C,{16}3x,3x,5x,5x,
{8}4,{16}7,5,7,5,6,5,{8}6,2,{4}2,
{16}7/4,,,6/3,,,{8}5/2,4/1,{16}8h[16:1],7,,1h[16:1],{8}8,
{16}2h[8:1],,,2,,1,{8}8,{16}1,7,1,7,{4}1-3-5[8:1]*>2-4<5[8:1],
1b,{16}E8,E2,B6,B3,{4}C,{16}6,5,6,5,
7h[8:1]/4h[8:1],,,7/4,,5/8-5-7[16:3],,5/8,,,,,,,,,{8}1/5,
{16}2,6,,3,{8}5,5/4,3,{16}5,4,5,4,
{4}7h[8:1]/3h[8:1],2h[8:1]/6h[8:1],6h[8:1]/4h[8:1],3h[8:1]/5h[8:1],
{8}5h[8:3],4,3,4,6h[8:3],5,4,5,
4h[8:3],5,6,5,3h[8:3],4,5,4,
2h[8:3],4,4,4,3h[8:3],5,5,5,
6h[8:3],4,4,4,5h[8:3],3,3,3,
5/3,6,7,8,6/4,3,2>6[4:1],2h[2:1],
,,,,,4,6-8-2<6b[8:3],6h[8:5],
E7,E2,,,,,5,3,
8/1-5[16:1],2,{4}1,{2}7bh[4:1]/3bh[4:1],
{8}3h[8:1],4,3h[8:1],4,3h[8:1],5,3h[8:1],5,
6h[8:1],5,6h[8:1],5,7h[8:1],5,7h[8:1],5,
2h[8:3],E8,E7,E6,3h[8:3],E2,E1,E8,
5h[8:3],E3,E2,E1,7h[8:3],E4,E3,E2,
{4}Ch[1:1],{8},,,,B1,B7,
{4}B3,{8}5/3,2,1,7,{4}7<5p4>3[2:1],
{2}7bh[2:1],{4}A3f,{8}6,6,
{16}5h[8:1],,,4/5h[8:1],,,{8}3h,2h,1h,2h,3h,
4b/7h[2:1],,,5,{4}4,{8}4,{16}7,5,
{8}7,6,,5,{4}4/2h[4:1],5,
5/6h[4:1],3,{8},6/3v8[8:1],2,3,
,3/5v2[8:1],6,5,,7,{4}7qq3[4:1],
{8}7b/2/C,,,1>4[8:3],1,1,,6,
{16}6<1[16:1],,,6,,,{8}3,{2}3xh[16:3]/2xh[16:3],
{4}2/8,5,{8},5,{4}5/2,
4,7/4,{8},3,{4}7/4,
6,7/2,{8}7,6,{4}7/2,
3,7/2,{8}2,3,{4}2/7,
{8}8,7,6,5,4,3,2,1,
{16}8x,7x,6x,5x,4x,3x,2x,{32}1x,8x,7x,6x,5x,4x,3x,2x,1x,8x,7x,6x,5x,4x,3x,2x,1x,8x,
{1}7bx/E8/B7/B6/E7/E6/B8/B5,
{4},8/1,{16}8,1,8,1,{4}7x/2x>5[8:1],
2x/5,{8}6,2/6<1[8:1],,,4,3,
4,3/7,{4}1,{8}2-6[16:1],7-4[16:1],2x,7x,
{4}2>7[2:1],{8}2,2h[2:1]/A4,A5,A6,{4}D7,
{8}2,3,3/6,3,{4}4/6,{8}6V82[8:1],6,
{4}6/3,{8}B5,B1,{4}C,{8}2-8-6[8:1],2/5,
{4}2,{8}B6,C,6,3,6,4,
5h[4:1],,,3,{4}3,{8}5/3-7[8:1],2,
{2}3b/Cf,{4}2/6h[8:1],7/3h[8:1],
1/8<5[8:1],8/1,{8}8/2>5[8:1],1,2,7,
6,5,4,3,6-3[16:1],2-7[16:1],6x,2x,
{4}8V64[4:1],{8}8,8,A7,A6,A5,A4,
A3,7/4,6,7/3,{4}3,{8}4,4,
{4}4,6/C/B5/B4,4/3,{8}3,3,
,6/2,6,6/2,{4}7h[4:1],1h[4:1],
{8}6,6,4,4,5,5,2,2b,
{16}3,4,3,4,3,5,4,6,5x,6x,4x,6x,3x,5x,2x,5x,
{1}1bxh[16:23],
{16},,,,,,,,2x,3x,{8}4x,{4}5x-8[16:1]/6-1>2>3<4<5<6<7>8[8:5],
6bx/5bx,{16},,,,,,,,E1,E2,E3,E4,
{8}E5,3,{16}3,6,3,6,{8}2h[4:1],3,4,5,
{16}7h[8:1],,,7,4h[8:1],,,6,4,7,,3h[8:1],,6,{8}4h[8:1],
{16},6,{8}2h[8:1],{16},5,{8}3h[8:1],{4}6p2[16:1]*q2[16:1],Cf,
1h[4:1],{16}7,8,7,8,{4}1h[2:1],{16}8,E8,E7,E6,
{8}E5,1,{16}2>5[16:1],8<5[16:1],,,2,8,,,{4}Cf/B8/B7/B6/B5/B4/B3/B2/B1,
{16}6/4,,,5,,3,{8}5,4,6,{16}3,6,4,5,
{8}1bh[4:1],{16}8x,7x,,1>5[8:1],,,{8}7,6,{4}7-3<7[4:1],
{2}7bx/Cf,{8}1,3,{4}6/4,
{8}7h[8:1],3,{16}7,4,6-1-7[8:1],5,{8}6,3/6b,{16},,,,6,
,,6,,4h[16:1],{8}6,4,{16}5h[16:1],3,,6h[16:1],{8}4,
{16}6xh[8:1],,,4xh[8:1],,,{8}4x,{4}3/5,Cf/5b-7-1-3-5[2:1],
{8},,,,1,3,{16}5,4,5,4,
{8}7/3,6/3,{16},6,4,5,{8}3-6[16:1],2,{4}3,
{16}2,,,2,,6x,{8}6x,2,4,{16}3,5,3,5,
{4}1h[4:1],2h[4:1],3h[4:1],4h[4:1],
{1}Ch[1:8],
,,,,,,,{4}6h[2:3],
3,2,{8}2,2,
2,2,{4}2,{8}3h[1:2],5,5,5,
{4}5,{8}5,5,,,5,6,
6,6,{4}5,B7/B6/E7,B2/E3/B3,
{2}B8/B1/E1/B5/E5/B4,{4}E1/B8/B1,{8}E3,C,
{2}E7,{4}B5/B4/E5,B8/B1/E1,
C,E7/E3,{8}5/4,5/4,{4}Ch[2:1],
,8b,{16}1x,2x,3x,4x,{4}5x,
{8}6/1x-5[16:1],8,1,8-4[16:1],7/3,8,2-5[16:1],2,
8-6[16:1],8,1-4[16:1],1,7-4[16:1],7,3-6[16:1],3,
{4}8q3<8[2:1],{8}8,1,,1x,1x,1x,
,5x/2x,6x,5x/2x,7x/1-5[16:1],2,{4}1/8,
8V64[4:1],{8}1,2,{4}1V35[4:1],{8}8,7,
,B5,B4,B3,7/1,8,8/2,1,
6h[2:1],4,3,4,2q6q2[4:1],3,7/2b,Cf,
,6,5,6,{4}7h[4:1],4,
{8}3/8x-4[16:1],1,8,1-5[16:1],2/6,1,7-4[16:1],7,
1-3[16:1],1,8-5[16:1],8,2-5[16:1],2,6-3[16:1],6,
{4}1p6>1[2:1],{8}1,8,,7,7,7,
,4,5,6,{2}6h[4:1]/3h[4:1],
{8}6,6,3,3,5,5,4,4,
6/5,6/5,4/3,4/3,6/4,6/4,5/3,5/3,
{16}2,4,{8}3,{16}7,5,{8}6,{16}1,3,{8}2,{16}8,6,{8}7,
{16}1,8,1,8,2,7,2,7,6x,5x,4x,3x,2x,1x,8x,7x,
{1}6bxh[2:3]/2bxh[2:3],
{16},,,,,,,,,3x/7x,4x/8x,5x/1x,{4}6bx>2[4:1]/2bx<6[4:1],
{8},,,,2/6,1,{16}3,6,4,5,
{8}3,2xq5[8:3],{16}2,1,{8}2,,,{4}Cf,
{16}6,,,6,,4x,{8}5,4x,{16}3x,4,,2x,{8}3,
{16}1h[8:1],,,8,1h[8:1],,,7,{2}8s4[16:1]*z4[16:1],
{32}7x/1x,6x/2x,5x/3x,4x,,,,,{16}3,5,4,6,{8}5,6,{16}5,3,4,2,
{8}4,{16}2,5,,2,{8}4,{4}2-5[16:1]/6-1[16:1],2b/6b/Cf,
{8}6/4,{16}5,4,{8}5,6/3,{16}4,5,4,5,{4}7bx/2bx,
{16}2,4,2,4,3,5,3,5,4,6,4,6,5,7,5,7,
1x,8x,2x,7x,3x,6x,4x,5x,{32}4x,5x,6x,7x,8x,1x,2x,3x,4x-6-8-2-4-7-1-3-5-8-3<4[1:2],5x,6x,7x,8x,1x,2x,3x,
{1}4bx,
E
