&title=就现在
&artist=吴莫愁
&first=0.1
&des_1=捱思北塔
&des_2=捱思北塔
&des_3=捱思北塔
&des_4=捱思北塔
&des_5=捱思北塔
&lv_5=13
&des_6=捱思北塔
&des_7=捱思北塔
&des=捱思北塔
&inote_5=(122){4}5/6,B1/B2,7/5,{8}E2/B2,7,
{4}5/6,B1/B2,6/5,5/E2/B2,
4/3,B8/B7,2/4,{8}E8/B7,2,
{4}4/3,B8/B7,3/4,4/E8/B7,
6/5-7[8:1],B1/B2,7/5-7[8:1],{8}E2/B2,E4,
{4}6/5-7[8:1],B1/B2,7/5-7[8:1],5/E2/B2,
3/4-2[8:1],B8/B7,2/4-2[8:1],{8}E8/B7,E6,
{4}3/4-2[8:1],B8/B7,{16}3/4-2[8:1],,,5,{8}4,6,
{4}7-2[8:1],3-6[8:1],4qq3[8:1]*pp5[8:1],4,
1x-3[8:1]/4x-2[8:1],1/4,5x-7[8:1]/8x-6[8:1],8/5,
{8}8-4[8:1],8,7-5[8:1],7,1-3[8:1],1,{4}4-8[8:1],
4/5w1[8:1],5pp5[4:1]*qq5[4:1],{8},,,,4/5>2[8:1],
6,{4}5/7V16[8:3],{2}1-4[8:1],
{8}3/5,2,{4}4/1V38[4:1],{2}8V61[4:1],
{4}5h[4:1],2<7[8:1],4h[4:1],2<7[8:1],
6>3[8:1],1-5[8:1],5w1[8:1],5x,
{16}2,1,2,1,{8}3,4,{4}5-8[8:1]/3-6[8:1],5x/3x,
5-8[8:1]/3-6[8:1],5x/3x,{8}3/5-8[8:1],4,{4}5/7,
2/5<8[16:3],8>3[16:3],3<6[16:3],6,
{8}1-3[8:1],1-7[8:1],,,{4}4w8[8:1],4,
{16}7,8,7,8,{8}6,4,{4}5-8[8:1]/3-6[8:1],5x/3x,
5-8[8:1]/3-6[8:1],5x/3x,{8}3/5-1[8:1],4,{4}5/7,
2/7-2[8:1],3-6[8:1],4-8b[8:1],2,
{8}1-5[8:1],8,{4}1/6h[4:1],{8}8xw4b[8:1],1x/7x,{4}8bx,
2bV48V61[2:1],5bh[8:3],,5-3[8:1],
{8}2-6[8:1],2,7-4[8:1],7,1-5[8:1],1,{4}8,
7b-4V26-8[2:1],3bh[8:3],,3-5[8:1],
{8}8-6[8:1],8,1>4[8:1],1,7-3[8:1],7,{4}8,
2bV86-1-3[2:1],5bh[8:3],,5-8[8:1],
{8}2-5[8:1],2,7-3[8:1],7,1>4[8:1],1,{4}5,
6x-8[8:1]/5x-3[8:1],6/5,{8}2-5[8:1],1,2,7-4[8:1],
1,7,{4}3V14[4:1],3/4-8[8:1],7b,
{16}7,8,7,8,{8}6,4,{4}5<7[8:1]/3<5[8:1],5x/3x,
2-5[8:1]/5-8[8:1],5x/2x,2-6[8:1]/4-8[8:1],4x/2x,
{16}7,8,7,8,{8}6,5,{4}6-8[8:1]/4-6[8:1],4x/6x,
5-8[8:1]/3-6[8:1],3x/5x,4-8[8:1]/2-6[8:1],4x/2x,
{16}7,8,7,8,{8}5,3,{4}4-6[8:1]/2-4[8:1],4x/2x,
5-8[8:1]/3-6[8:1],3x/5x,{8}7/5-1[8:1],4,5/2,2,
{4}1q5[8:1]/2>5[8:1],1/2,{8}7<4[8:1],1,7,8p4[8:1],
,8/1,,5pp4[4:1]/3qq4[4:1],,5/3,,,{1}5bx-1b[4:5],
{4},,5w1b[8:1],5,
7b/3b<5[8:1],7p3[8:1],1q5[8:1],8V62[4:1],
2V48[4:1],8V61[4:1],{2}2-5[8:1],
{4}8>3[8:1],8pp7[16:5]/7qq8[16:5],,,5-1[8:1],
5pp4[16:5]/2V84[16:5],,,3-8[8:1],
{8}6-1[8:1],6,4-8[8:1],4,5-1[8:1],,
{4}2V48[4:1],1-5-7[4:1],,1h[4:1],
{16}7,8,7,8,{8}6,5,{4}4-1[8:1]/6-3[8:1],4x/6<5[8:3],
{2}1h[4:1],{8}1-5[8:1],5,{4}6/1,
7/4>1[16:3],1<6[16:3],6>3[16:3],3,
{8}8-6[8:1],8-2[8:1],,,{4}5w1[8:1],5,
{16}2,1,2,1,{8}3,5,{4}4-1[8:1]/6-3[8:1],4x/6x,
4-1[8:1]/6-3[8:1],4x/6x,{8}6/4-8[8:1],5,{8}4/2,2,{4}
7/2-7[8:1],6-3[8:1],1-5[8:1],7h[4:1],
{8}5-1[8:1],4/6,{4}5/3h[4:1],{8}1xw5b[8:1],8x/2x,{4}1bx,
2b-6V47-1[2:1],5bh[8:3],,5-3[8:1],
{8}2-6[8:1],1,7-4[8:1],8,1-5[8:1],2,{4}7/1,
7bV15-3-8[2:1],4bh[8:3],,4>1[8:1],
{8}8-6[8:1],7,2>5[8:1],3,7-3[8:1],6,{4}8/7,
2bV47V51[2:1],8bh[8:3],,8-4[8:1],
{8}2-5[8:1],3,7-3[8:1],6,1>4[8:1],2,{4}8/1,
6x-3[8:1]/5x-8[8:1],6/5,{8}2-5[8:1],1,2,7-4[8:1],
1,7,{4}3<8[4:1],3/8-4b[8:1],5b,
{16}7,8,7,8,{8}6,4,{4}5<7[8:1]/3<5[8:1],5x/3x,
2-5[8:1]/5-8[8:1],5x/2x,2-6[8:1]/4-8[8:1],4bx/2bx,
{16}7,8,7,8,{8}6,5,{4}6-8[8:1]/4-6[8:1],4x/6x,
5-8[8:1]/3-6[8:1],3x/5x,4-8[8:1]/2-6[8:1],4bx/2bx,
{16}7,8,7,8,{8}5,3,{4}4-6[8:1]/2-4[8:1],4x/2x,
5-8[8:1]/3-6[8:1],3x/5x,{8}7/5-1[8:1],4,5/2,2,
{4}1-4[8:1]/2-5[8:1],1/2,{8}7-3[8:1],1,7,8-5[8:1]*-3[8:1],
,8,,6pp4[4:1]/2qq4[4:1],,6/2,,,{1}1b,
E
