&title=dailnote
&artist=七草くりむ
&first=2.02
&des=缘雪
&des_6=
&lv_5=14.0
&inote_5=(130){4}4h[4:7],6,8,8,
6,8,6,6,
6-3[8:1],2-7[8:1],8-5[8:1],4-1[8:1],
{8},,2,{16}8,1,{4}8h[4:1],1,
4h[4:1],5,2/3,2/3,
4/5h[4:1],7,7/6,4/5,
2/7,{8}8-4[8:1]/1-5[8:1],5/4-2[8:1],{2}1/8-6[8:1],
{4}2h[4:1],3h[4:1],4,{8}6,{16}4,5,
{4}4,4/5>2[8:1],5/6,8,
1-4-1[4:1],1-6[8:1],,1/7,
8-5-8[4:1],{8}8-3[8:1],3>5[4:1],,,{4}4-1[8:1],
4-7[8:1],4,8,1/7,
8<6[8:1],2p5[8:1],7q4[8:1],1>3[8:1],
1<7[8:1]/4<6[8:1],1>3[8:1],5-3[8:1]/1-7[8:1],5-1[8:1],
3-7-5[4:1],{8}5-3[8:1],3V17[4:1],1-5[8:1],1,,,{4}2-7[8:1]/8-3[8:1],
2-5[8:1]/8-5[8:1],{8},,7/2,{16}1,8,
{4}1-3[8:1],1-4[8:1],1-5[8:1],1-6[8:1],
1,1-6[8:1]*-7[8:1],1-4[8:1]*-3[8:1],1-7[8:1],
1-3[8:1],{8}5/1-7[8:1],7,1-5[8:1]/5-1[8:1],3,{4}5/1>7[4:1],
1x,C,6-3[8:1]/7-2[8:1],7/6,
1/4,2>5[8:1],7>2[8:1],4<7[8:1],
1>4[4:1],4q5[4:1],7,7h[4:1],
6,{8}4>1[8:1]/8<5[8:1],5/1>4[8:1],{2}8/4q5[4:1],
{4}7h[4:1],6q8[4:1],1>4[8:1],{8}1,5,
{4}5x/6h[4:1],1-5[8:1],2/1,2/3-7[8:1],
3/4,4/5-1[8:1],5/6-2[8:1],6/7<4[8:1],
7/1,{8}4/3-8[8:1],3,3/6-1[8:1],6,{4}6/5,
{8}1/2-6[8:1],2,{4}2/4-8[8:1],1-5[8:1],1/7,
1-5[8:1]/8-6[8:1],8-4[8:1]/1-3[8:1],1-6[8:1]/8-6[8:1],8-3[8:1]/1-3[8:1],
8/1,5/1-5[8:1],{2}5v7[0.4477##0.2308]*v3[0.4477##0.2308],
{4}4/8-6[8:1],{8}4-2[8:1],5,7-5[8:1]/4-8[8:1],1,{4}4/7,
{8}6/7-4[8:1],4>8[4:1]/5-2[8:1],{16},,,,,,,,3/4-7[8:1],E3,B2,B1,
{4}E1,1-5[8:1],{32}2x/1,E3,B3,B4,{8}E5,{4}8-4[8:1],
{32}7x/8,E7,B6,B5,{8}E5,{4}7-5[8:1],{32}7/2-4[8:1],E2,B1,B8,{8}E8,{4}2,
2/6,{32}2-4[8:1],E2,B1,B8,{8}E8,{32}6-4[8:1],E7,B7,B8,{8}E1,{4}6,
7>2[0.4477##0.2308]/2v4[0.4477##0.2308],A7/A2,5w1[8:1],B5/E6/E5,
2/8,{32}2,E3,B3,B4,{8}E5,{32}7x,E7,B6,B5,{8}E5,{32}1,E2,B2,B3,{8}E4,
{32}7x,E7,B6,B5,{8}E5,{4}2-4[8:1],{2}4V28[8:1]/2-6[8:1],
{4}7/5,{8}7-5[8:1],5V73[4:1],{2}7-1[8:1],
{4}1>4[8:1]/6<1[8:1],1v7[8:1]/6v8[8:1],6v3[8:1]/1v3[8:1],6/1,
1V75[8:1],1-3[8:1],1/7,2/8V24[8:1],
6/8-6[8:1],8/2,1q5[8:1]/5q1[8:1],5>1[8:1]/1<5[8:1],
5/1,{8}2-5b[8:1],5-8<5b[4:1],{2}2>5[8:1],
{8}2V86[4:1],6,{4}6V42[4:1],2q8[4:1],C,
6V42[8:1],1>6[8:1],6V42[8:1],1>6[8:1],
6>2[4:1],2V86[4:1],6q4[4:1],Cfh[4:1],
{8},,8-4[8:1]/7-3[8:1],4v6[4:1]/3v5[4:1],,,,,2-6[8:1]/1-5[8:1],
6v4[4:1]/5v7[4:1],,,,,8h[8:1],{16}1,2,
{4}3V57[4:1],7V53[4:1],3V16[4:1],6V42[4:1],
2V46[4:1],6q8[4:1],C,5x,
2-5[8:1]/6>2[4:1],6/2<6[4:1],{8}5-8[8:1],5,{4}5,
7-4[8:1]/3V57[4:1],7V13[4:1],4-1[8:1],4,
1/7,{24}2,3,{6}4,{24}7,6,{12}5,{24},,1,2,{6}3,
{24}8,7,{12}6,,{4}1h[4:1],2h[4:1],3<6[8:1],
3/2,{8}2-8[8:1]/6-8[8:1],8-4[8:1],{4}6-2[8:1],6<4[2:1],
{8}4x,5,{4}6,1w5[8:1],1-3[8:1],
7-5[8:1],7/1-7[8:1],1/3-1[8:1],3/5-3[8:1],
7/5-7[8:1],5/3-5[8:1],7-1[8:1]/3-1-5[4:1],3/7,
3-7[8:1],6-2[8:1]/3v4[8:1],3/6,4<7[8:1]/1>4[8:1],
4v7[8:1]/1v4[8:1],1-5[8:1],1<6[8:1],1/2,
1-5[8:1],2-6[8:1],3-7[8:1],4-8[8:1],
5-1[8:1],6-2[8:1],7-3[8:1],1-5[8:1],
8/1,{8}8<5[8:1]/2>5[8:1],5-8[8:1]*-2b[8:1],{2}8/2,
{8}B7/B3,4/6,{4}4/6,5w1[8:1],5b,
E
&inote_6=
