&title=Wanna Know Me_ (Too Bad)
&artist=塞壬唱片-MSR
&first=-0.1
&des=differ
&lv_5=13+
&inote_5=(102)
{4},,,
{8}1b-5[4:1],,1x,,7,7h[4:1],,6\6h[4:1],,7,2h[4:1],,4,4h[4:1],,3h[4:1],1b-5[4:1],,
1x,,3,3h[4:1],,4h[8:1],5h[8:1],6,
{16}8h[8:1],,,5,5-1[8:1],,1-4[4:1]/8z4[4:1],,,,,,,,,,6h[2:1],,,,,,
{32},2x,3x,4x,
{8}5xqq5[8:3],,5,7h[4:1],,,4,6,2/4pp3[8:3],,4,2h[4:1],,,5-8[8:1],,
5qq6[8:3],,5,7h[4:1],,,57,24,4pp3[8:3],,4,3>5[8:3],,1h[4:1],,,
1bpp8[8:3],,1,7h[4:1],,,16,2,5qq7[8:3],,5,1h[4:1],,,8h[8:1],3h[8:1],
4pp2[8:3],,46,8h[4:1],,,17,46,3-6[4:1],,3,4h[8:3],,,
{24}D8,D1,D2,D3,D4,D5,
{8}D6/7x,5xh[4:1],8,
{16}6,5,7xh[8:1]/4x,,,,17,,34,,2h[4:1],,4,,8h[4:1],,5,,
7xpp4[4:1]b,,,,2/7b,,,,A3/E3,,5,5,2,,3,3,
1h[8:1],,4h[8:1],,7-4[12:1],,3-8[12:1],,7>2[12:1],,3,,7<5[12:1],,5h[8:1],,
7>5[4:1]b,,,,,,,,
{8}E7/A6,7xh[4:1],1,
{16}3,6,2xh[8:1]/5x,,,,82,,65,,7h[4:1],,5,,1h[4:1],,4,,
3x>1v7<5[4:1]b,,,,5/3b,,,,A8/E1,,7,7,5,,2,2,4h[8:1],,1,1,
7>1[12:1],5,6,,7<4[12:1],,2-6[12:1],,7s3[2:1]b,,2,,8h[4:1]b,,,,,,,,
8x-4[4:1],,,8x,,,2x,,,2x,,,5h[4:1],,,,8x-4[4:1],,,8x,,,6x,,,6x,,,
3h[8:1],,6,5,7x>8v2>3[8:3],,,7x,,,4x,,,4x,,,5h[4:1],,,,
4x>2v8<6[2:1],,,4x,,,6x,,,6x,,,5h[8:1],,3,4,2-5[4:1],,,4,,,6,,,8,,,5,,5,,
8-3[4:1],,,6,,,4,,,2,,,4,,3,3,5h[128:1],,7h[64:1],,1h[32:1],,3h[16:1],,4,4,2,2,8,8,6,6,
{24}E1,E2,E3,E4,E5,E6,
{16}D7,D8,D1,D2,
{12}A3,A4,A5,A6,,,
{16}2-6[12:1],,8,8,2,,7,5,6,1,
{24}4x-6[16:1],3x,2x,1x-3[16:1],,,4,,,1-5[12:1],,,
{16}8,4,1,,2h[8:1],,7,5,6x-8[16:1],6x,3-5[16:1],,6,,3-7[12:1],,8,8,
{24}3,,,
{16}8-6[16:1],8,4-2[16:1],,8-4[12:1],,4,,8-6[16:1],,
3-1[16:1],,8-4[12:1],,3,,8-2[16:1],,5-1[16:1],,8,,5-3[16:1],,7,7,
5b-7[16:1],,6-4[16:1],,1x-3[16:1],,6x-1[16:1],,1x-5[16:1],,5x-8[16:1],,,,2-5[16:1],,5-3[16:1],,,,,,7,,
4,,2,2,5,,6,,4b-2[16:1],,3-5[16:1],,8x-6[16:1],,3x-8[16:1],,8x-4[16:1],,4x-1[16:1],,,,7-4[16:1],,4-6[16:1],,7b,,1b,,2b,,,,3b,,5b,4,6b,,
{8}3xpp6[2:3],,,,,,,,,,,,,,,,6,6-3[2:1],,,,,,,,
7h[4:1],,5,3,
{16}4,5,6,,2,,1h[4:1],,4,,2h[4:1],,,,3h[4:1],,,,4h[4:1],,,,
5h[4:1],,7,7,6h[4:1],,8,8,7h[4:1],,5,,8h[4:1],,,,
5h[4:1],,8,,6h[4:1],,8,,7h[4:1],,,,8h[4:1],,,,
1h[4:1],,3,3,2h[4:1],,4,4,3h[4:1],,1,1,1x-5[8:1],,,,
7-4[4:1],,,7,,,3,,,3,,,2,5,3,4,3-8[4:1],,,1,,,7,,,5,,,5b-8[12:1],,,,
2h[128:1],,4h[64:1],,6h[32:1],,8h[16:1],,1,1,7,7,5,5,3,3,
{24}E1,E8,E7,E6,E5,E4,
{16}2,1,8,7,
{16}5,6,3,4,2-5[12:1]b,1,8x,,,,,,7-5[16:1],,
5-1[16:1],,1-6[16:1],,2x,,4x,,7x-3[16:1],,3x-6[16:1],,,,,,
2,,4,,3,35,5,
4,7,3,1h[8:1],,
{24}5x,4x,3x,
{16}2x-8[16:1],,8x-3[16:1],,4-1[16:1]*-7[16:1],,,,
,,8-4[16:1],8,3-1[16:1],,8-6[16:1],,,,,,
{32}2,3,4,5,
{16}1<6[16:1],4,8,3,1-3[16:1],,4,,4-8[16:1],,8-3[16:1],,4-6[16:1],,
6-3[16:1],,3-7[16:1],,,,1-5[16:1],,
{24}5x-2[16:1],6x,7x,8xh[8:1],,,,,,
{16}7,7,
{24}1,2,3,47,6,5,
{16}3-6[16:1],4,2,2,3,,1-4[16:1],,4-8[16:1],,8-3[16:1],,1-6[16:1]*-5[16:1],,,,,,
4,4,7,,7bx-5[8:1],,5x-1[8:1],,1xV38[4:1],,,,8x-4[8:1],,4xV25[4:13]*V25[4:13],,2x,,1x-6[1:3]*-6[1:3],
