&title=俊达战队 なみぐる feat.ずんだもん
&artist=なみぐる
&first=1.58
&des=Hinata
&lv_5=13+
&inote_5=(160.02)
{64},,
{16},7bx/8bx,,7bx<4b[8:1]/8bx>3b[8:1],,7bx/8bx,,7bx/8bx,,,,
{64},,,
{16}3bx/4bx,,3bx>8b[8:1]/4bx<7b[8:1],,3bx/4bx,,3bx/4bx,,,,
{64},,,,,,,
{2}4h[2:1]/5,3h[2:1],5h[2:1],6h[2:1],3h[2:1],
{16}6,8x,7x,8x,7x,,3,1x,2x,1x,2x,,5-2[8:1]*-8[8:1],,4,,5,,,,8/2-6b[8:1],,,,
{2}7b/2b/B2`Cf`B6,
{8}6<1[8:1],5,6,3,2>5[8:1],1,2,8,2,7,6<2v4[8:3],3,Cf,,,,
{8},2,3qq5[4:1],4,5,6,7-4b[8:1],1,7,2,4-7[8:1]/3-7[8:1],2,3b/4b,,,,
{8}7,6/5,4<7[8:1],3,2/4,1,8>3[8:1],7,6/8,5,4>1[8:1],5,6-4-8[4:1]/4,7,63,,
{8},1b/8b,2b/7b,3b/6b,4b/5b,,8b/7b,6b/5b,4b/3b,1b-5b[8:1]/2b-6b[8:1],,1bx/Cf/2bx,,,,,
{16}18,,,,6,5,6,,3,4,3,4,3,,6/5,,6,,8,7,8,,61,,B2,,B8/E8,,B6,,E4/B3,,Cf,,,,
3,4,3,,6,5,6,5,6,,3/4,,3,,1,2,1,,8,,73,,62,,73,,62,,
{8}3>8[8:1],4,3,6,7<4[8:1],8,7,1,6,2,7>3v5[8:3],4,Cf,,,,
{8},6,7qq1[4:1],8,1,2,3v2b[8:1],6,3x,7,8<7-4[8:1]*>1-4[8:1],71,8bx,,,,
{8}6,7/8,1<6[8:1],2,3/1,4,5>2[8:1],6,7/5,8,1-5[8:1],8,7-3[8:1]/1-3[8:1],,7/1,,
{16}4bx,2bx,4bx,2bx,4hbx[8:3],,,,,,3,,45,,56,,7,,1v2>4-2<1[8:4]/8v7<5-7>8[8:4],,,,
{4}1b/8b,,
{8},
{8}1hx[2:1],,7,6,5h[4:1],,2h[4:1],,4v7<5[4:1],,1,1,,E1,E2,,
{8}7h[2:1],,2,3,4h[4:1],,7h[4:1],,5qq3b[4:1],,6,6,,E6,E7,,
{8}2h[2:1],,7,6,5h[4:1],,4,,6v5[4:1]/3v4[4:1],,,,,B6/E6,B3/E4,,
{8}7h[2:1],,2,3,4h[4:1],,6h[4:1],,4v7[4:1]*v2[4:1],,,,,3,6-2b[16:1],,
{4}6b/3bh[4:3]/Cf,,,
{8},,2q3<1[8:5],,3,3,,,,,
{16}2x,1x,2x,1x,2x,,7x,8x,7x,8x,7x,,5-2[8:1]*-8[8:1],,4,,5,,,,8/2-6b[8:1],,,,
{2}7b/2b/B2`Cf`B6,
{4}7<4[4:1],4p7[4:1],7<5[6:1],5,2>5[4:1],5q2[4:1],2>4[6:1],4,
{8}7,7,6,54,2,3,45,7,7hx[8:1]/E1f`B8`B7`E7,,7hx[8:1]/E6f`B5`B4`E4,,7x/E3f`B2`B1`E1,7b,8b/7b,,
{4}2>5[4:1],5q2[4:1],2>4[6:1],4,7<4[4:1],4p7[4:1],7<5[6:1],5,
{8}3,3>8[8:1],4,5,6,7<4[8:1],8,1,2x,3x,5x-1[8:1]/4x-8[8:1],6x/3x,5b/4b/Cf,,,,
{4}7<4[4:1],4p7[4:1],7<5[6:1],5,2>5[4:1],5q2[4:1],2>4[6:1],4,
{8}7,7-2b[8:1],8,7,4,3-6[8:1],4,3,1x,8x,7x-2[8:1]/6x-3[8:1],8x/5x,7b/6b,,,,
{4}2>5[4:1],5q2[4:1],2>4[6:1],4,7<4[4:1],4p7[4:1],7<5[6:1],5,
{8}2>4[8:1],5,6,7,7<5[8:1],2,3,4,
4x/5x,2x/7x,1x/8x>1s5b[8:1],2x/7x,1b/8b,,E8/E1/Cf/E5/E6/B4/B1,,
{2}1qq3[2:1],5,8pp6[2:1],4,1pp4[2:1],7,8qq5[2:1],2,
{2}4pp2[2:1],8,5qq7[2:1],1,4qq1[2:1],6,5pp8[2:1],3,
{16}
6-2[8:1],5,,7,6b,,,,3-7[8:1],4,,2,3b,,,,6,6,,7x,8bx>3b[8:1],,6,,8bx<5b[8:1],7x,,,8bx,,,,
3-7[8:1],4,,2,3b,,,,6-2[8:1],5,,7,6b,,,,3,3,,2x,1bx<6b[8:1],,3,,1bx>4b[8:1],2x,,,1bx,,,,
7-3[8:1],8,,6,7b,,,,2-6[8:1],1,,3,2b,,,,7,7,,6x,5bx>2b[8:1],,7,,5bx<8b[8:1],6x,,,5bx,,,,
2-6[8:1],1,,3,2b,,,,7-3[8:1],8,,6,7b,,,,
{32}1bx,2bx,3bx,4bx,5bx,6bx,7bx,8bx,1bx,2bx,3bx,4bx,5bx,6bx,7bx,8bx,1bx,2bx,3bx,4bx,5bx,6bx,7bx,8bx,1bx,2bx,3bx,4bx,5bx,6bx,7bx,8bx,
{4}1bxqq3[2:1],4,5,6,7qq4[2:1],8,1,2,3qq5[2:1],5,6,7,8h[1:1],E5,E4,E3,
1>4[2:1],8,7,6,5<8[2:1],4,3,2,
{16}2x,2x,2hx[4:1],,,,6x,6x,6hx[4:1],,,,,,1xqq5[8:5],1x,
{1}1hx[4:3],
{4}8pp6[2:1],5,4,3,2pp5[2:1],1,8,7,6pp4[2:1],4,3,2,1h[1:1],E5,E6,E7,
8-5[2:1],1,2,3,4-1[2:1],5,6,7,1h[4:1]/8h[4:1],,8h[1:1]/4h[4:1],,
{16}4bx,,4bx,,4bx-1b[8:1],4bx,4bx,,4bx,,,,
{4}Cf/B1/B2/B3/B4/B5/B6/B7/B8/E1/E2/E3/E4/E5/E6/E7/E8,
{16}7x,8x,7x,8x,7x,,2x,1x,2x,1x,2x,,5-2[8:1]*-8[8:1],,4,,5,,,,8/2-6b[8:1],,,,
{2}7b/2b/B2`Cf`B6,
{4}7<4b[4:1],4p7b[4:1],7<5b[6:1],5q2b[4:1],2>5b[4:1],5q2b[4:1],2>4b[6:1],4,
{8}2,7,6,54,2,3,45,7,7hx[8:1]/E1f`B8`B7`E7,,7hx[8:1]/E6f`B5`B4`E4,,7x/E3f`B2`B1`E1,7b,8b/7b,,
{4}2>5b[4:1],5q2b[4:1],2>4b[6:1],4p7b[4:1],7<4b[4:1],4p7b[4:1],7<5b[6:1],5,
{8}6,6<1[8:1],5,4,3,2>5[8:1],1,8,7x,6x,4x-8[8:1]/5x-1[8:1],3x/6x,4b/5b/Cf,,,,
{4}7<4b[4:1],4p7b[4:1],7<5b[6:1],5q2b[4:1],2>5b[4:1],5q2b[4:1],2>4b[6:1],4,
{8}3,7-2b[8:1],8,7,4,3-6[8:1],4,3,1x,8x,7x-2[8:1]/6x-3[8:1],8x/5x,7b/6b,,,,
{4}2>5b[4:1],5q2b[4:1],2>4b[6:1],4p7b[4:1],7<4b[4:1],4p7b[4:1],7<5b[6:1],5,
{16}2x,1x,2x,1x,2x,,7x,8x,7x,8x,7x,,4-8b[8:1]/5-1b[8:1],,63,,4b-2b[8:1]/5b-7b[8:1],,,,4b/5b,,,,18,,18,,27,,18,,
{32}1b,2,3,4,5,6,7,8,1h[4:1],,,,,,,,6b,5,4,3,2,1,8,7,6h[4:1],,,,,,,,1b,2,3,4,5,6,7,8,1/6b,5,4,3,2,1,8,7,6b/2b,
