&title=infinite knots
&artist=『天結いキャッスルマイスター』OP
&first=0.005
&des=Tane
&freemsg=『天結いキャッスルマイスター』OP
&wholebpm=
&des_1=Tane
&des_2=Tane
&des_3=Tane
&des_4=Tane
&des_5=Tane
&lv_5=12+
&inote_5=(155){1},
{4}3,3,4,6,{4}7,6,5,3,
{4}2,4,6,7,{8}8,,6,,4,,3,2,
{16}1h[8:1],,3,1,
,,5h[8:1],,
7,5,,,
8>5[4:2],,,6h[16:5],
{4},,6,7,
{4}8,1,{8}2,,3,3,
{4}5,56,4,34,
{16}6h[8:1],4,,,
6h[8:1],,3,,
6,6,2,,
61,,,,
{16}7h[8:1],8,,,
7h[8:1],1,,,
7,,7,2,
,7,3,,
{16}3h[8:1],5,,,
3h[8:1],,6,,
3,3,7,,
83,,,,
{16}12,,,56,
,,34,,
2<5[4:1]/7,,,,
,,,,
{4}8b,7,6,5,
{4}3/4v6[8:1],,5v3[8:1]/6,,
{4}4,3,2,1,
{4}7-4[8:1]/8,,1/2-5[8:1],,
{4}8,7,6,{8}5,,
{8}3-1[8:1]/4,,5,,
4/6-8[8:1],,,,
{4}4,3,2,1,
{16}78,,6,,
12,,3,,
8,1,8,,
27,,1,8,
{4}1>6[8:3],6,7,{8}8,8,
{4}8<3[8:3],3,2,{16}1,,2,3,
{4}2<5[8:3],5,4,{8}8,8,
{4}7>4[8:3],4,5,{16}1,,1,,
{16}2,,2,,
3,4,3,,
7,,7,,
6,5,6,,
{4}5>1[8:3],{8}8,8,7,,{16},,2,5,
{4}3^6[8:1],8b,3/6^3[8:1],1b,
{16}78,,,56,
,,34,,
2,1,2,,
7,8,7,,
{8}18,1-5[8:1]/8,,7-3[8:1],
,3<1[16:5],,6h[8:3],
{16},,,,
,,1,8,
2,,2,,
6,,6,,
{8}45,4-8[8:1]/5,,6-2[8:1],
,2<4[16:5],,7h[8:3],
{16},,,,
,,8,1,
7,,7,,
3,,3,,
{8}24,3,4,6,
57,6,5,3V15[8:3]*qq5[8:3],
{8},,,,
,6,6h[4:1],,
{16}8p3[8:1],,,,
,,7,2,
8-4[8:1],,8,,
8,,1-5[8:1],,
{16},,1,,
7,,,,
7,5,,2,
4,,1,8,
{16}2,,7,,
,3,,,
4,,3,,
2-6[8:1],,2,,
{16}2/7-5[8:1],,,,
27,,1-5[8:1],8,
,,1-3[8:1],,
7,,1,,
{16}8-4[8:1],,,8,
1<3[4:1],,2,,
7,,,,
8,,7,,
{4}6^3[8:1],1,{8}3-7[8:1],,8,8,
{4}7-3[8:1],7/4-1[8:1],4/6-2[8:1],16,
{16}2-7[8:1],,,,
28,,,,
7p3[8:1],,,1,
,,2,,
{16}3,,3,4,
,,,,
6h[8:3],,,5,
,,7,,
{16}8,,,,
,,1,8,
2q6[8:1],,,8,
,,7,,
{16}6,,5,6,
,,,,
7,8,6,,
2,1,3,,
{16}7/2-4[8:1],,,,
27,,8-4[8:1],1,
,,8-6[8:1],,
2,,8,,
{16}1-5[8:1],,,1,
8>6[4:1],,7,,
2,,,,
1,,2,,
{4}3^6[8:1],8,{8}6-2[8:1],,1,1,
{4}2-6[8:1],2/5-8[8:1],5/3-7[8:1],83,
{16}7-2[8:1],,,,
71,,,,
2q6[8:1],,,8,
,,7,,
{16}6,,6,5,
,,,,
3h[8:3],,,4,
,,2,,
{16}1,,,,
,,8,1,
7p3[8:1],,,1,
,,2,,
{16}34,,,,
6,5,7,,
3,4,2,,
6,5,8,,
{8}8<3[8:3]/5,,2,,
8,8,8,,
{8}1>6[8:3]/4,,7,,
1,1,1,,
{8}8>6[8:3]/5,,2,,
8,8,8,,
{16}7b/8b,,,2b/4b,
,,5b/7b,,
,,1,8,
1,2b,,,
{8}3<1[8:3]/8,,6,,
4,4,4,,
{8}6>8[8:3]/1,,3,,
5,5,5,,
{4}8-4[8:1]/5v2[8:1],,2-5[8:1]/4v1[8:1],,
{16}5/8b,,,4/6b,
,,3/5b,,
1b/4b,,,3b/5b,
,,4b/6b,,
{2}5h[8:3]/8h[8:3],4h[8:3]/5h[8:3],1h[8:3]/4h[8:3],4h[8:3]/5h[8:3],
{8}27,,56,,
27,,34,,
{4}5-1[8:1],4-8[8:1],6-1[8:1],3,
{16}2-4[8:1],,,4,2,,6,,
7-5[8:1],,,5,7,,3,,
{16}1^4[8:1],,,4,1,,6,,
8^5[8:1],,,5,8,,3,,
{8}1h[4:1],,,14,
{16},,78,,
,12,,,
{16}24,,,56,
,,,,
57,,,12,
,,78,,
{16}24,,,57,
,,1<2[2:3]/8h[8:7],,
,,,,
,,,,
{4},,8,8,
{4}8,7,6,5,
{4}4,3,{16}2,,,1,
,,8,,
{8}7h[8:2]/8h[8:2],,,1h[8:2]/2h[8:2],
,,3h[8:1]/6h[8:1],,
{8}2bp7[2:3]/5bp4[2:3],,,,
,,,,
{4},,,,{4},,,,{4},,,,{4},,,,
{1},,,,,,,,
