&title=Käfig
&artist=Chicala Lpis
&first=0.02
&des=Le sens de l'existence ☆ Comment l'explorer ? Ne soyez pas « indifférent » à une telle âme.
&lv_5=14
&inote_5=(64)
{6},,,
{12}3h[12:3],,4,5h[12:3],,3,2h[12:2],,{24}3,2,4<7[6:1],,,,
2,2,
{12}4qq5[6:1],2,3,4p3[6:1],5,6,7,,
{24}8,8,8/4,,
{96}7,6,5,4,3,2,1,8,7b/3b,,,,,,,,
{12}1q6[12:1],,7,8>3[16:1]/1-5[16:1],,7,8-4[16:1]/1,,
{24}6,7,8-3[12:1]/1,,3-6[12:1],,6-1[12:1],,1-4[12:1],,,,,,,,
3b,,,,
{12}2pp3[6:1],,1,8qq7[6:1],,1,2V41[6:1],2,1-5[12:1],2,,
{24}8,7,
{12}6pp7[6:1],,5,4qq3[6:1],,5,6-8[24:1],6-4[24:1],6,,,,
{12}7h[12:2]/5,,6,87,81,12,2h[12:2]/4,,3h[12:1],{24}2,3,1,4,2,3,
{12}2h[12:2],,3,34,45,5/6,
8qq1[6:1],1,{24}7,2,8,,,{48}2,3,4,,,,
{8}5V74[6:1]/7h[8:1],{48}5,4,3qq5[6:1],,,,{12}5,,3,
7h[12:2],,6,{24}7,6,8,5,7,6,
{8}7V15[6:1],{48}5,4,3qq5[6:1],,,,{12}7,,3,
7h[12:1],,{24}18,,6b,57,,3b,42,,
{24}6-1[12:1],,1-5[12:1]/7,62,5-2[12:1]/3,,
{4}4h[12:2]/6<4[12:3],
{24}6,,,5,6,7,8,7,6,5,2h[24:1],8h[24:4],5h[24:3],,,{48},7,6,,,,
{12}5-8[12:1]/6,1h[24:2]/8-3[12:1],{24}3V51[6:1],2,5,,1,,2,,2h[12:2],,,,
{24}8,2,8,,5/4-1[16:1],,1,7,1,,5-8[16:1]/4,,8,2,8,,45,,
{12}1,
3pp5[12:1]/4pp6[12:1],5pp7[12:1]/6pp8[12:1],7pp1[12:1]/8pp2[12:1],,,,,,
{48}6,4,5,3,
(58)
{8}8,3,
(140)
7b/4,,2b/5,,
(127)
8h[4:1]/1h[8:8],,,,{16}7h[4:1],,,,
{32},,,,,,7,6,{16}5,2,4,3,7,5,6,4,5,3,6,2,7,{32}1,2,3,4,5,,
(254)
{8}8,4,8,3,
(127)
{16}1/2h[16:5],,,6,,4,3,,4-8[8:1]/3,,52,,4,3,,{32}7-3[8:1]/3,62,
{16}51,,,7,,2,4,2,7,5,8,4,1,5,8,6>3[8:1],
{16}7h[16:3],,,6,,
8,7,6,2,4,1,5,8,4,1,3-8[8:1]*-6[8:1],2,,,3,,,
7,7,3,4,2,8,5,6,1,7,
{16}7h[16:5],,,3,,5,6,,5-1[8:1]/6,,47,,5,6,,{32}2-6[12:1]/6,37,
{16}48,,,2,,7,5,7,1v4[8:1],,3/4-8[8:1],,18,,5,,
{16}
7b,,,5h[16:5]/1,,,1,2p5[16:3],3h[16:3],,,2,,,1,2,
3/4,,,5h[16:5]/1,,,1,2<5[16:3],3h[16:3],,,2,,,1,2,
4h[16:3]/3,,,1h[16:3],,,7,6<4[16:5],5h[16:3],,,6,,,5,6,7p4[16:8],,,,3,,,,,,,,2,,
1,1,4b/2b,,7,8b/6b,,3,2b/4b,,5b/6b,,3b/4b,,5b/7b,,2b/4b,,2,,{24}3,4,3,{8}4,34,45,{24}6,5,6,{8}5,76,87,{24}1,8,1,{16}8,,12,38,{8}47,47,25,25,
{16}1>5[4:1],,,7,,,7,,8<4[4:1],,,3,,,3,,2h[4:1],,{24}1-5[8:1],8,7,
{8}6-1[8:1],1,6,
{32}4,3,2,1,8,7,6,5,4b,,,,
{16}6-3[8:1],,,2,1-4[8:1],,8,,7-2[8:1],,,,5-8[8:1],,4,,3>8[6:1],,,,3p5[4:1]/7,6,5,4-8[8:1],3,,,4,,,14,,
3h[16:3]/2,,,5h[16:3],,,7,,7,6,8,5,1,4,2,3,
{8}2b,45,7,8<5[8:1],5<8[8:1],8,,4>1[8:1],1>4[8:1],4,,{16}6,7,
{8}4/8,3,15,{16}6,7,
{16}8<4[4:1],,,2,,,2,,1>5[4:1],,,6,,,6,,7h[4:1],,{16}8,1,
{8}2,83,
{16}6,5,6,5,,84,,7,
{16}3-6[8:1],,,,8-5[8:1],,1,,2-7[8:1],,,,4-1[8:1],,5,,6<1[6:1],,,,6q4[4:1]/2,3,4,5-1[8:1],6,,,5,,,85,,
6h[16:3]/7,,,4h[16:3],,,2,,2,3,1,4,8,5,7,6,
7h[16:3],,,1h[16:3],,,3,,3,2,4,1,5,8,6,7,
6h[16:3],,,4,,,3b/4,2b/5,6/1b,,,,
{4},,,
{32}1,5,{16}1,6,3,8,,,,
(141)
{16}7h[8:1],,5,6,5,,7h[8:1]/4,,
{16}2h[8:1],,4,3,4,,2h[8:1]/5,,
{16}8-4[8:1],,,2,8,,3,,
5pp4[4:1]/2,,,3,,,3,,
{16}2b,,3>8[8:1],2b/4b,,,3,,
{16}5b,,6<1[8:1],7b/5b,,,6,,
{16}3b,,{32}24,5,6,7,{16}8,,45,,
{16}6b,,{32}7/5,4,3,2,{16}1,,45,,
{16}8,2,7,2,6,2,5,2,{24}4h[128:1],3,2,1,8,7,{32}6h[128:1],5,4,3,2,1,8,7,
(107)
{32}6/2,,15,,,,
{16}3-6[16:1]/4,,7-4[16:1]/8,,1w5[12:1],,
(214)
1w5[6:1]*w5[6:1],,,,,,,,
