&title=Elemental Creation
&artist=dj TAKA meets DJ YOSHITAKA
&first=1.83
&des=Toiletwa
&lv_5=14
&inote_5=(212)
{16}1/2,,1-6[8:1]/2,,,,2-5[8:1]/1,,,,1/2,,,,8,,8h[4:4],,,,4,,4,,3,,3,,2,,2,,
,,,,
8/7,,8-3[8:1]/7,,,,8/7-4[8:1],,,,1,,1h[4:3],,,,5,,5,,6,,6,,7,,7,,
8b/2b,,3,,7,,4,,5,,3,,6,,4,,7b/3b,,8,,2,,1,,6,,3,,5,,4,,
6h[16:12],,,,,,,,3h[16:12],,,,
,,,,7,,8,7,6,,
6,5,4,3,2,1,
{32}3b,4,5,6,7,8,1,2,3/7b,,,,
{16}6,,6,,5/3,,4,,4,,6/8,,7,,7,,1/3,,2,,2,,1/7,,8,,1/7,,8,,2/6,,3,,3,,8/4,,7,,7,,1/5,,3,,3,,8/4,,6,,6,,
2,3,4,5,8,7,6,5,
4/3,,2,,6/5,,7,,2/4,,5,,1,2,3,4,5/6,,7,,3/4,,2,,7/5,,4,,8,,7,,6b,,3,4,3,,7,8,7,6,5,4,3,2,1,8,7/2,,2-5[8:1],,,,1-6[8:1]/2,,,,3/1,,3,,,,
2b-5[8:1],,1,,2/8,,7-4[8:1],,8,,7/1,,
3-8[8:1],,2,,3/5,,6-1[8:1],,7,,6/4,,
2,,3/4,,5,,4/3,,
3-8[8:1],,4,,3/5,,6-1[8:1],,5,,6/4,,
2-5[8:1],,3,,2/8,,7-4[8:1],,6,,7/1,,
1,2,3,4,5,6,7,8,
1/7,,6,,8/2,,3,,8/7,,6,,1,2,3,4,7/5,,8,,1/2,,3,,8/7,,6,,5,,4,,3b,,2,1,2,,7,8,7,6,5,4,3,2,1,8,7/2,,6,5,7,,3,4,1,8,7,6,5,4,3,2,
1b^7[8:1],,5,,1^3[8:1],,5,,1^7[8:1],,5,,1^3[8:1],,5,,1^7[8:1],,6,6,1^3[8:1],,5,5,1^7[8:1],,4,4,1,,5,5,2,,3/4,,5,,6,,7/3,,8,,1,,2,,
4b,3,4,3,5b,2,5,2,6b,1,7,2,8,3,7,2,
8b^2[8:1],,4,,8^6[8:1],,4,,8^2[8:1],,4,,8^6[8:1],,4,,8^2[8:1],,3,3,8^6[8:1],,4,4,8^2[8:1],,5,5,8,,4,4,7,,6/5,,4,,3,,2/6,,1,,8,,7,,
6/5,,6/5-2[8:1],,,,6-1[8:1]/5,,,,6/3,,3b,,,,
6/2b,,
{16}3,,3,,4/6,,5,,5,,3/1,,2,,2,,8/6,,7,,7,,8/2,,1,,8/2,,1,,7/3,,6,,6,,1/5,,2,,2,,8/4,,6,,6,,1/5,,3,,3,,
7,6,5,4,1,2,3,4,
5/6,,7,,3/4,,2,,7/5,,4,,8,7,6,5,4/3,,2,,6/5,,7,,2/4,,5,,1,,2,,3b,,6,5,6,,2,1,2,3,4,5,6,7,8,1,2/7,,7-4[8:1],,,,8-3[8:1]/7,,,,6/8,,6,,,,
7b-4[8:1],,8,,7/1,,2-5[8:1],,1,,2/8,,
6-1[8:1],,7,,6/4,,3-8[8:1],,2,,3/5,,
7,,6/5,,4,,5/6,,
6-1[8:1],,5,,6/4,,3-8[8:1],,4,,3/5,,
7-4[8:1],,6,,7/1,,2-5[8:1],,3,,2/8,,
8,7,6,5,4,3,2,1,
8/2b,,3,,1/7,,6,,1/2,,3,,8,7,6,5,2b/4,,1,,8/7,,6,,1/2,,3,,4,,5,,6b,,7,8,7,,2,1,2,3,4,5,6,7,8,1,2b/7b,,3,4,2b,,6,5,8b,1,2,3,4,5,6,7,
8h[4:12],,,,,,,,,,,,,,,,,,,,,,,,,,,,,,,,
1>8[4:7],,,,,,,,,,,,,,,,,,,,,,,,,,,,,,,,
5<4[4:7],,,,,,,,,,,,,,,,,,,,,,,,,,,,,,,,
7>6[4:7],,,,,,,,,,,,,,,,,,,,,,,,,,,,,,,,
{8}
8h[4:4],,,,,,,,7h[4:4],,,,,,,,5h[4:4],,,,,,,,4h[4:4],,,,,,,,
1h[4:4],,,,,,,,3h[4:4],,,,,,,,7h[4:4],,,,,,,,4h[4:4],,,,,,,,
7b,,
6/3,,4,5,,6/5,,5/4,,4/3,,2,3,4,,,6/4,,5,4,,3/4,,5/4,,6/5,,7,6,5,
,,4/3,,2,5,,7/5,,6/4,,5/3,,2/4,,1>8[4:3]/3,,,,,,,,,
5s1[2:1],,,,,,,,
{16}1b/7b,,1/7,,8,8,8,8,8-4[8:1],8,8,,,,,,
8b/2b,,8/2,,1,1,1,1,1-5[8:1],1,1,,,,,,
5b/3b,,5/3,,4,4,4,4,4-8[8:1],4,4,,,,,,
4b/6b,,4/6,,5,5,5,5,5b,5b,5b,5b,5b,,,,
1b/5b,,1/5,,2b/6b,,2/6,,7b/3b,,7/3,,8b/4b,,8/4,,1b/5b,,1/5,,8b/4b,,8/4,,7b/3b,,7/3,,2b/6b,,2/6,,5<4[4:2],,,,,,,,,,,,,,,,
8/7,,8/7-4[8:1],,,,8-3[8:1]/7,,,,8/7,,,,8,,
1/2,,1/2-5[8:1],,,,1-6[8:1]/2,,,,1/2,,,,1,,
7h[4:3],,,,,,,,2h[4:2],,,,
,,,,7,,8,7,6,,
6,5,4,3,2,1,
{32}3b,4,5,6,7,8,1,2,3/7b,,,,
{16}
6,5,6,,7/2,,6,5,6,,7/1,,6,5,6,,7/1,,6-1[8:1],5,6,
,6/5-2[8:1],,4,,6/5,,,,
7/1,,2,6,2,,7/1,,3,5,3,,2/6,,3,4,3,,2/6,,3,4,3,,
8,7,6,5,1,2,3,4,6/5,,5/4,,
3,4,3,4,2,5,2,5,1,6,1,6,8,,6,5,6,,1,2,1,2,8,3,7,4,6,5,7,8,6,1,5,2,4,3,5,2,6,1,8,2,8,2,
8b,,8-5[8:1],,,,1-4[8:1]/8,,,,1/7,,7b,,,,
6/2b,,
3,4,3,,2/7,,3,4,3,,2/8,,3,4,3,,2/8,,3-8[8:1],4,3,
,3/4-7[8:1],,5,,3/4,,,,
2/8,,7,3,7,,2/8,,6,4,6,,7/3,,6,5,6,,7/3,,6,5,6,,
1,2,3,4,8,7,6,5,3/4,,4/5,,
6,5,6,5,7,4,7,4,8,3,8,3,1,,3,4,3,,8,7,8,7,1,6,2,5,3,4,2,1,3,8,4,7,5,6,4,7,3,8,1,7,1,7,1b,2,3,4,5/1,6,7,8,1/5,2,3,4,
{32}8b,7,6,5,4,3,2,1,
{16}8^2[8:1],,4,,8^6[8:1],,4,,8^2[8:1],,4,,8,,4,,8/4,,8,7,4/6,,8,1,4/2,,8,7,4/6,,8,7,6/5,,4,,5/3,,2,,8/1,,7,,6/5,,4,,
2,1,3,8,4,7,5,6,4,5,3,6,2,7,1,8,
1b-4[4:2],,,,7,,,,7,,,,7,,,,
8b-5[4:2],,,,2,,,,2,,,,2,,,,
1b/8b,,7/2,,6/3,,5/4,,1b/5b,,6/2,,7/3,,8/4,,
1b/2b,,1/2-5[8:1],,,,1-6[8:1]/2,,,,1/2,,2,,,,
8b/7b,,8/7-4[8:1],,,,8-3[8:1]/7,,,,8/7,,7,,,,
8h[32:13]/2h[32:13],,,,,,,
{32}7/3,6/4,5,
