&title=Ignotus
&artist=ak+q
&first=-0.01
&des=Rlnneko
&lv_5=14
&inote_5=(170)
{4},,,,
{1},,,,
{4}3h[8:1],3-8[4:6],,,,,,{8},7,7-4[4:7],,{4},,,,,,2,1-5[4:7],,,,,,,,7-3[4:3],,,,,
{8}C,B1,8h[4:1],,1,,
{16}6,5,6,5,{16}6h[16:3],,,4,,,{8}6h[4:1],,,6h[4:1]/4h[4:1],,,6h[8:3]/4h[8:3],,,,,
{8}4,5,3,{16}5,4,{8}5,6,35,2,3h[4:1]/5h[4:1],,,3h[8:3]/5h[8:3],,,,,
{16}3,4,3,4,3,,6,5,6,,{8}6h[4:1],,,4h[8:2]/5h[8:2],,,4h[8:3]/5h[8:3],,,,,
{16}3,4,3,,6,5,6,,3,4,2,,6,5,7,,3,4,1,,6,5,8,,3,4,{8}1h[8:1],8,,
{8}7,7,{16}5h[8:5],,,7,,,7h[8:5],,,,{8},4h[4:1],,,3h[8:3],{16}7,,,6,,,5,,
{8}2,2,{16}4h[8:5],,,2,,,2h[8:5],,,,{8},5h[4:1],,,6h[8:3],{16}2,,,3,,,4,,
{8}7,7,{16}5h[8:3],,,7,,,7,,,,{8}4,6h[4:1],,,2h[4:1],,,4h[4:1],,
{8}8h[4:4],,,7,,6,,,5h[4:4],,,4,,,3,,{1}2w6[4:14],,,,
{8}18,2,35,6,47,3,35,6,56,4,35,6,4x/5x,,
{8}78,6,45,3,12,3,45,67,18,23,{4}4h[4:1]/5h[4:1],,{16}1,2,3,4,8,7,6,5,34,,,,
{8}2-6[8:1]/1,3,1-5[8:1]/2,8,12,,7-3[8:1]/8,6,7/8-4[8:1],1,7-3[8:1]/8,6,78,,
{8}81,7,65,7,81,2,43,2,81,7,6p1[4:1]/5q2[4:1],4,,,,,
{16}3,4,3,2,3,4,3,2,3,4,3,2,3,,,,{8}7,46,3,24,5,36,4,56,
{8}7,7,18,2,2,34,{16}5>7[4:2],4,5,4,{4},,,4x/5x,
{8}2,3,45,{16}6,5,{8}6,7h[4:1],8,8,7,6,45,{16}3,4,{8}3,2h[4:1],1,1,
{8}2,3,46,{16}7,8,{8}7,6h[4:1],5,5,7,6,35,{16}2,1,{8}2,3h[8:1],4,,
{16}6,5,6,5,6,,3,4,3,,5,,6,,7,,1,8,1,8,1,,8,1,8,1,8,,2,7,4,5,{4}2,,,,,,,,
{8}3,5,4,6,4,5,3,6,4,6,3,5,4,4,5,3,6,4,5,3,5,4,6,3,5,3,6,4,5,5,4,6,
{8}3,4,35,6,4,45,3,2,18,7,6,57,4,3,25,6,78,1,2,34,5,6,57,8,{16}2,1,2,,3,4,3,,6,5,6,,7,8,7,,{4}1-5[4:2],,,,,,,2x/7x,
{16}6,5,6,7,6,,4,5,4,5,4,,7,8,7,,3,4,3,2,3,,5,4,5,4,5,,2,1,2,,7,8,7,8,7,,3,4,3,2,3,,7,6,7,,2,1,2,1,2,,6,5,6,7,6,,2,3,2,,6,5,7,5,8,,2,1,2,1,2,,7,8,7,,3,4,2,4,1,,7,8,7,8,7,,2,1,2,,6,5,6,7,6,,3,4,2,4,1,,7,8,7,,3,4,3,2,3,,6,5,7,5,8,,12,,,,
{16}6,5,6,7,6,,2,1,3,1,4,,7,8,7,,3,4,3,2,3,,7,8,6,8,5,,2,1,2,1,3,4,3,4,3,,7,8,7,6,7,,4,5,4,,6,5,6,5,6,,2,1,2,3,2,,5,4,5,4,7,8,6,5,7,,2,1,3,1,4,,6,5,6,,2,1,3,4,2,,7,8,6,8,5,,3,4,3,4,1,8,1,8,2,7,2,7,3,6,2,5,1,4,8,5,1,6,2,7,3,8,4,1,{4}5-1[8:1],45,
{8}2h[4:5]/4,8,6,4,8,6,4,8,6,4,8,6,4,2,8,6,7h[4:5]/5,1,3,5,1,3,5,1,3,5,1,3,5,7,1,3,
{16}45,,6,5,6,,45,,3,4,3,,45,,6,5,7,,45,,3,4,2,,45,,7,8,7,,18,,25,,3,4,3,,47,,6,5,6,,15,,2,4,3,,48,,7,5,6,,45,,2,1,3,,45,,
{16}7,8,6,8,7,,3,4,2,4,3,,6,5,6,5,6,,2,1,2,1,2,,6,3,5,4,6,,54,,2,1,3,1,2,,6,5,7,5,6,,3,4,3,4,3,,7,8,7,8,7,,1,2,3,4,8,7,6,5,
{16}3,1,2,1,3,,7,5,6,5,7,,1,8,1,8,2,4,3,4,2,,6,8,7,8,6,,4,5,4,6,3,5,2,6,3,7,4,8,3,7,2,6,1,5,8,4,
{16}7>7[4:2]/3,8>8[4:2]/4,1>1[4:2]/5,2>2[4:2]/6,3<7[4:1]/7,,,,7,8,1,2,3,4,5,6,{1}3/7b-3[4:15],,,,2b-6[4:13],
E
