&title=Queen Aluett -女王アルエット-
&artist=Optie Animation
&first=-0.47
&des=~~
&lv_5=14
&inote_5=(212)
{1},
{8}2,{16}6x,3x,{8},5/4,
{2}5-8[8:1]/4b-1[8:1],
{12},3,4,3x,6x,5,6,3x,4,3x,7,7x,
{4}8x/1x,2,3,4,
{12}6,5,6,3,4,3,6,5,6x,{8}4,3,
{2}2x/Chf[4:4],2h[5:2],
{4}2h[8:1],2,
{24}1/8x,,,,E7,,{8}E6,E5,
{4}2b-5[8:1],6h[8:1],7-4[8:1]/3,2xh[8:1],
{8}3,5x/2x,6x/1x,7x/8x,
{8}C,,{16}7,6,5x,,
{8}2-5[8:1],2,8-4[8:1],8,2x-6[8:1],2,7x-3[8:1],7,
{4}2x>5[8:1],2,C,,
{16}2,5,2,,2,5,2,,2,6,2,,2,6x,2x,,2,7,2,7x,2,7x,2,7x,
{4}2,
{8}1/8,7/2,3x/6,,
{16}7x,4x,7,,7,4x,7,,{4}3h[4:1],
{12}6,3x,5x,
4x,2x,7x,
{4}8xqq6[8:1]/1bpp3[8:1],C,
{12}4x,,B5,B6,,B1,B2,B3,,6x,,E7,B7,,,B1,B2,B3,8,,,7,6x,5x,
{12}1b,2,3,4,8x,7,6,5,3,2,1/7,6x,
{4}5h[5:1],4xh[5:1],{8}5x,4,
{4}5b,6/3,7/2,8/1h[4:1],8xh[4:1],
{8}1,1,8,1,{12}8,1,8,{8}1,
8x,1,8x,1,8x,7x/2x,6x/3x,{4}5xh[4:1]/4b,
{8}4,5,5,3,{12}5,4,5,{8}4,4,
{8}5x,3,4,5,{12}4,5,4,{4}5x[6:1],
{4}5h[8:1]/2h[8:1],4h[8:1]/3h[8:1],7h[8:1]/4h[8:1],6h[8:1]/5h[8:1],
{4}1h[8:1]/2h[8:1],7h[8:1]/8h[8:1],5h[8:1]/4h[8:1],6h[8:1]/3h[8:1],Cf,
{4}7h[8:1]/5h[8:1],1h[8:1]/2h[8:1],6h[8:1]/B3,2h[8:1]/E8f,5w1[8:1]/1,D6/A5/D5,,
{12}3b,4,3,{8}8,4,{12}6,5,6,{8}1,5,{12}4,5,4,{8}5,4xh,3h,2h,1h,8xh,
{12}6,5,6,{8}1,5,{12}2,4,1x,{8}5x,8/7x,
6x,5,4,3,{4}6q2[8:1]/2q6[8:1],2x<7[8:1]/6x>3[8:1],
{4}2x/6x,,,
{8}2,3,4/5,6,7,8,{4}1/2b,
{8}3/4b,5x,6x-2[8:1],4,6,4-8[8:1],3x,4,2-5[8:1],,
{8}7b-4[8:1]/2,8x,7/2-5[8:1],1,7x/2,8,1,2x,
{4}3,5h[8:1]/4h[8:1],8h[8:1]/2h[8:1],7h[8:1]/1h[8:1],
{8}8,6,1,5,2h[4:1],{16},7,
{4}7b,
{12},6,5,6,3,4,3,6,5,6x,2,2,
{4}8x/1x,7,6,5,
{12}3,4,3,7,5,7,2,4,2,
{12}7,5,7,{4}2-5[8:1],1-6[8:1]/2[8:1],1,3,
{12}4,5,4,5,3,6,3,6,2,7,2,,
{16},,1,1,8x,,8,,
{4}8b,
{12}2x,4,3x,{8}8x,1,{12}6,5,7,{8}4,4x,
{12}6/3,,/6x/3x,{16}7x,2x,8,1x,7x,2x,8x,,
{8}1bx,{16}B7/B8/E8,,{4}B7/B8/E8,2-6[8:1]/6,7-3[8:1]/2,7/1-4[8:1],
1/8-5[8:1],8/3-6b[8:1],3x,7/8-4[8:1],8/6-3[8:1],1-6[8:1],4x-7[8:1],2-5[8:1],2/8-4b[8:1],8,2b,3-7[8:1]/4-8[8:1],4/3x,6-1[8:1]/5-2[8:1],6x/5x,8x-4[8:1]/1x-5[8:1],8x>3[8:1]/1x<6[8:1],8q4[8:1]/1xp5[8:1],8/1,6x/3x,5b/4b,
{12}5/4,,,E6f/1,2,3,4x/B7,,8x,7x,6x,5x/1,2,3x,4x/8,7,6,5,
{4}1b,,
E7/B7/B8/E1/E8,B6/B5/E5/E6,A4/D4/A3/E4,1/2,3/4x,5x/6x,7/1x,7x/1,
{24}8b,7,6x,5x,8x,1,{4}2,{24}1b,2x,3x,4x,1x,8,
{4}7,{8}4x/5x,4x/5x,6/3x,6/3,7/2,7/2,8/1,8/1,8x/1x,7/2b,,8/1,7b/2x,,8/1,8/1,
{8}7b/2,,,3,2x/4b,,,6x,7/5b,8,1/2,3,4/5,6,7,8,
{12}1x,2x,6,2,6,2,6,3,6,3,6,4,
{1}6x<4[3:2],
{4},1/2-5[8:1],8-4[8:1]/2,7b/8,6-1[8:1],{16}6,,4b,3,
{4}2x-4[8:1],5-1[8:1]/2,7/5x,{16},1x,2,3,{4}4v2[8:1]/8bv6[8:1],84,
{4}3x-8[16:1]/7x-4[16:1],7/3,{12}6,5,7,
{4}8x-4[8:1],8/3h[8:1],5/3,6/2,7-3[8:1]/3x-8b[8:1],7-1-4[8:1]/3-5-8[8:1],,
{16},,3,2,{4}
1-5[8:1],8-4[8:1]/1,8/3-1[8:1],{16}5,6,7-4[8:1],,{8}8-3[8:1],7,8b,,
{4}6/2,{16}4,5,3,4x,{4}2x-5[8:1],8-4[8:1]/2,7-3[8:1]/8,7x/6x-2[8:1],6b,
{4}4,3h[4:1],{8},E7,B7,Cf,B2,,B3,,,2-5[8:1],2,1-6[8:1],1,3-8[8:1],3,5x-1[8:1],5,4p7[8:1],4,5,5h[4:1],
{16}8x,1,{8}2x-4[8:1],2x,5x-7[8:1],5x,4,4xh[4:1],8-5[8:1],8,{16},4,3,2,
{8}1b,5,{12}6,6,,{8}7-5[8:1]/8,1,7,,{16}3-8[8:1],,4,4,3b,,,,
{4}7-4[8:1],7/2-5[8:1],2,{16}6x,7,8,1,
{4}2/4w8[8:1],4b,1x>4[8:1]*<6[8:1],1w5[8:1],1,7b/3b,
{8}Ch[1:5],B1,B8,B2,{4}B7,E1,,,
{1}B7,E7,E6,B6,{8}4x,5,4,5,4,5,3,6,3,6,3,6,3,6,3,3,7xB2,7x,7x,7x,6/B3,6,6,6x,5x/B4,5,5,5x,4x/C,4,4x,4x,3b/B3,3x,3,3x,2x/B5,2,2,2x,1/B6,1,1,1x,8b/C,8,8,8x,
{4}C,,B6/B5/E6/E5,,B3/E4/B2/E3/E2,
{24}1s5[8:1]/8z4[8:1],,,,,,
{4}1b/8b,
{8},,{4}4h[8:1]/2h[8:1],3,{24}6x/5xh[8:1],,,7,8,,{8}1,,2/4,3,7/5,6,8/1b,,{24}1x,2,3h[8:1],,,,{8}5,7x/8x,1x,2x,{24}3,,,,4x/8x,7,
{8}6b,,4,7/5,6,2/4,3,1,8,1,
{16}8b,7,6,5,4,3,2,1,8/4b,5,6,7,8,1,2,3,4,5,6,7,8/6x,5,4,3,2,1,8,7,6x/1,2,3,4,5/1,8,7,6,5/1,2,3,4,/8,7,6,5,4/3x,2,1,8x/7x,
{12}6x,3x,5x,
4x,3x,6x,
{4}Cf,8b,{12}2,1,8,
1,8x,7,{8},,{4}3b,{16}B1,B2,B3,B4,B5,B6,B7,B8,B1,B2,B3,B4,B5,B6f,B7,,{4}B8,C,B6,E6,1h[4:1],,7h[4:1]/4h[4:1],,6h[4:1]/3h[4:1],,5h[4:1]/2h[4:1],,
{8}6/3,2,6/3,7,8/1,2,8/1,7,
{4}Chf[2:4],,,,5h[4:1],,6h[4:1],,7h[8:1],8/2,4/3,5/1,
{8}7-4[8:1],7,2-5[18:1]/7,2,8,{16},1,2x,3,4,5,
{4}6-1[8:1]/2-6[8:1],2b/6b,{16}4,3,2,1,5,4,3,2,
{4}1x-4[8:1],8b/1x,{16},5,4,6,
{4}5x-1[8:1],5/6-8[8:1],5x-1[8:1]/6,5x/2x,7v8[8:1]/2v1[8:1],7b/2b,6/3,
{16}7x,8,1,2,7,8,1,2,
{4}3x-7[8:1],3b,{16}6x-1[8:1],,4,6,{8}5x,4,{16}3-8[8:1],,4,4,
{8}3x,,6x/5x,5x/4,{4}3x-7[8:1]/4-8[8:1],4/3,6x-8[8:1]/3x-1[8:1],6/3,5-8[8:1]/4-1[8:1],5/4,
{32}2,3,4,5,6,7,8,1,
{8}2b/6-8[8:1],6x,5-1[8:1],5,5/7x-4[8:1],7,7/2-5[8:1],2,{4}2/1,8x-3[8:1],8x/4,5h[4:1],{16}6,7,8,1,{8}2-6[8:1],2x,{16}5/2x,,,4,3,,,,{4}3x>7[8:1]*p7[8:1],3x,
{4}5b>2[8:1]*<8[8:1],5,{16}1h[2:1],,,,3,4,5,6x,
{4}7-4[8:1]/8-3[8:1],7/8,{16}2x,5,3,6,
{4}4bv7[8:1],5v2[8:1]/4,5/4h[4:1],{16},,5b,6,
{4}7-3[8:1],7/1-5[8:1],8-4[8:1]/1,8/2-6[8:1],2/5-8[8:1],5/4-1[8:1],4b,,,
6-3[8:1]/2-7[8:1],6/2,,,
{24}1,2,3,4,5b,,{4},{24}7,6,5,4b,,,{4},8bq1[4:1]/1bq8[4:1],
