&first=4.12
&seek=0.00
&wait=0.00
&title=高嶺の花子さん
&artist=back number
&des_1=音合わせ譜面
&des_5=じょーじ
&wholebpm=138
&demo_seek=60
&demo_len=10
&lv_1=音
&lv_5=13+
&inote_5=
(138)
{4}
3h[4:4],4,4,4,4>1[4:1],5,6,7,
8h[4:4],5,5,5,4,{8}4,12,5,1-5[8:1],6,1,
{8}7-5[8:1],4,8h[4:1],,4-8[8:1],1,3h[4:1],,1-5[8:1],4,2h[4:1],,4-8[8:1],1,3h[4:1],,
(138.75)
{8}2,4,3,5,6,54,
{16}2,4,1,3,
(137.26)
{8}8b,8b,8bq3[4:2],8b,
,,,,
(138)
{8}1<5[4:2],,1,,1,,1,,
{4}1h[4:1],2h[4:1],3h[4:1],
{8}4h[4:1],1,{4}5<1[4:2],5,5,5,52,35,
{8}54,6h[4:1],7<4[8:1],1,3h[4:1],,2,2<7[8:1],,5>2[8:1],,8<5[8:1],,3>8[8:1],,
{8}6>3[8:1],,6,8q1[4:3],,
,,,,
,,8q1[4:1],7h[8:3],
,,,,
{8}8-4[8:1],4pp4[4:1],8,,
{8}3,,3,,3,2,3,1,{16}3h[16:3],,,8h[16:3],,,
{8}5p1[8:1],,8,7>2[8:2],6h[8:5],,,,,4h[4:1],1>4[8:1],6h[4:1],1,,68,
{8}1,28,3,42,35,6,17,8/1<6[8:1],3h[4:1],1,,28,7h[8:3],1<6[8:1],,1-4[8:1],,1,,
{8}1-4[8:1],5,18,
{4}7pp2[4:2],4,4,4,5,5,
{8}5,87,{16}4,8,1h[8:3],,
(138.29)
{8}4q8[8:1],,4,2>5[8:1],,12,6h[8:4],7,5-1[8:1],,5,8<5[8:1],,48,1h[8:1],4h[8:3],
(138.27)
{8}1>4[8:1],,1,5p1[8:1],,56,8,3h[8:5],
(137.16)
{8}
2h[8:2],,,1,2<7[8:1],,2/5b,,
(138.76)
{8}4p8[8:1],,4/7-5[8:1]*v4[8:1],,7^1[8:1],,4v1[8:1]*-7[8:1],,
(138.22)
{8}4,,4h[4:1],,
{8}2-6[8:1],8-4[8:1],2,8,
(138.33)
1h[4:1],3<6[8:1],7h[4:1],3,,
{8}78,18,2h[4:1],
(136.71)
{8}1>4[8:1],5,1q5[8:1],6,1,7,78,4,
(139.05)
3,24,53,6,57,8,1/7-2[8:1]*-2[8:1],
{8}2^7[8:1]*^7[8:1]/6,
(138.09)
{8},3b,4b,3b,,
{24}18,27,36,{8}4-8[8:1]/5-1[8:1],2/7,
(136.33)
4b/5b,,
{8}43,2,46,2,3/4v1[8:1],1-3[8:1],6h[8:1],,8,75,
{8}3V17[16:3],42,1b,6b,
(138)
4h[8:1],1v2[8:1],7,1,8-5[8:1],7-4[8:1],
,,
{8}3>8[8:1],5,3/7,4h[4:1],,1p5[8:1],6,2h[4:1],,
{8}4,53,6,17,82,1>1[4:2]/3,,5<1[4:1],,1,2,3,4,5-1[8:1],6,7-5[8:1],,7,
{8}3,1,2q5[8:3]/6,35,2,6h[8:1],,8h[8:1],,2h[8:1],4,68,2,
{8}
3b/5b,7,65,8,64,7,6/5v8[8:1],8-6[8:1],3h[8:1],,1,2-4[8:1]/4v1[8:1],,2v7[8:1]*-8[8:1]/4,,2>5[8:1],,
26,8p4[8:1],4,38,1,2-4[8:1]/5,7b/8b,2b/6b-3[8:1],7,8-4[8:1],1-6[8:1],8,1,
5pp2[8:3],2,,,4,4h[4:1],,1bv4[8:1],,3b>8[8:1],,3,5h[8:3],7-2[8:1],,7b<1[8:3],,7,3h[8:4],,,,
8,6,53,2h[8:1],
(139.03)
{8}4,1b/2b,
{16}2,1,4,5,4b,6,8,7,2b,1,2b,8,
(138)
{8}
4v1[8:1],,4v7[8:1]/6-4[8:1],,,,1q5[8:1]/5q1[8:1],,,,8v3[8:1]/3-1[8:1],,,,
8q4[8:1]/4q8[8:1],5,,,7-5[8:1]/5v8[8:1],,,,
1q5[8:1]/5q1[8:1],,,,2-8[8:1]/8v3[8:1],,8v5[8:1]*-6[8:1],,8w4[8:1],,,,
5v2[8:1]/3-5[8:1],,,,8p4[8:1]/4p8[8:1],,,,1v6[8:1]/6-8[8:1],,,,
1p5[8:1]/5p1[8:1],4,,,2-4[8:1]/4v1[8:1],,,,8p4[8:1]/4p8[8:1],,,,
1>5[4:1]/5<1[4:1],,1>1[4:2]/5,,,,2,,2,,2,,2,,2/3-6[4:1],,2,,2,8h[8:1],6-1[8:1],4h[8:9],
6,,3,,3,,3,,3,,{16}3,4,6h[8:1],,{8}1b,1b,1b,1b/2b,,
{1},,,,E
