&title=悔_
&artist=Essbee
&first=0.02
&des=woxxow
&wholebpm=193.000
&des_5=
&lv_5=14+
&inote_5=(193)
{1},
{2},Ch[4:5],,,
{16}8bx^7-4^5-8b[8:25]`4x^3-8^1-4[128:399],,,,,,,,,,,,,,,,
{16},,,,,,,,,,,,,,,,
{16},,,,,,,,,,,,,,,,
{16},,,,,,,,,,,,,,,,
{16}6^3-7[4:9]/1-4^3-8[4:9],,,,,,,,,,,,,,,,
{16},,,,,,,,,,,,,,,,
{16},,,,,,,,,,,,,,,,
{16}1/6h[8:3],,,,,,5h[8:3],,,,,,4,,,,
{16}3b/7b>3[16:7],,,,,,4,,5x,,,,,,,,
{16}6/2<6[16:7],,,,,,5,,4x,,,,,,,,
{16}7>3[8:3]/3,,,,,,3V52[16:8],,4xV68[16:6],,,,,,,,
{16},,,,,,28,,3xh[4:1]/7x,,,,4-1[16:6],,,,
{16}6,,,,,,5,,5xh[4:1],,,,8-5b[16:6],,,,
{16}2,,,,,,1,,1x-4[8:7],,,,5-8b[8:5],,,,
{16},,,,,,,,,,,,,,,,
{16}3h[8:3]/7h[8:3],,,,,,,,2,6,3,5,4,6,3,7,
{16}1bx-5[8:1],,,,5,,,,78,,1/6^1[8:1],,,,5,,
{16},,3,4,3,,2,,34,,2,,35,,1,,
{16}8-4[8:1],,,,4,,,,21,,8^3[8:1]/3,,,,5,,
{16},,4,6,4,,7,,65,,7,,64,,8,,
{16}1^4[8:1],,,,6,,7-3[8:1],,8,,3-7[8:1],,,,1,,
{16}1,,,,26,,3,,25,,3,,24,,3,,
{16}8^5[8:1],,,,5,,,,3,,2/4h[4:1],,,,1,,
{16}1,,6,5,7-4b[8:1],,2-6b[8:1],,7b,,2b,,,,1x/7x^4[8:1],,
{16},,3,,1h[4:1],,,,3,,4/2-6[8:1],,,,8,,
{16},,7,5,7,,8,,75,,8,,1,,24,,
{16}3^6[8:1],,6,,8h[4:1],,,,1,,2/7^2[8:1],,,,5,,
{16},,3,4,2,,6,,5,,8,,3/7h[4:1],,,,
{16}5b-8[8:1],,8,,5,,6q3[32:7],,,,2x,,2xh[4:1],,,,
{16}4b-1[8:1],,1,,4,,3,,8x,,4x/7x,,2x/5x,,,,
{16}7,,24,,1,,7,,24,,1,,24,,5,,
{16}46,,2,4,,7,5,,E8,B8,B1,E2,E6,B5,B4,E4,
{16}8xh[8:1],,,,8h[8:1],,1,,8h[8:1],,,,5/8h[8:1],,,,
{16}7h[8:1]/D4,A3,E3,A2,7^4[8:1],,,,8^3[8:1],,,,3,,,,
{16}5,,6,,3,,4,,7,,6,,3,,2,,
{16}4,,5,,8-4[8:1],,1,,2q6[8:1],,,,,,,,
{16}1xh[8:1]/7x,,,,1h[8:1],,8,,1h[8:1],,,,4/1h[8:1],,,,
{16}2h[8:1]/D6,A6,E7,A7,2-5[8:1],,,,1-6[8:1],,,,6,,,,
{16}4,,3,,7,,6,,2,,3,,7,,8,,
{16}3,7,3,7,3h[4:1],,,,1,8,7,6,4,3,2,1,
{16}5b,,5,,3,,8,,5,,5,,7,,1,,
{16}D7,A6,E6,A5,D5/8-3[8:1],,,,6-1[8:1],,,,5,,,,
{16}4h[8:1],,8h[8:1],,1h[8:1],,7h[8:1],,5,,6,,1,,1,,
{16}4h[8:1],,3h[8:1],,8h[8:1],,1h[8:1],,6,,4,,3/7,,,,
{16}4b,,4,,6h[8:1],,1h[8:1],,4,,4,,2xh[8:1],,8xh[8:1],,
{16}5,,6xh[8:1],,1xh[8:1],,8xh[8:1],,3-7[8:1],,7x,,7x,,,,
{16}1h[8:1]/5h[8:1],,,,3,,3,4,2,,6x,5,7x,,1x,,
{16}2,8,3x,7,4x,6,3,5,2x,4,1x,5,8x,6,7b>6b[16:26],,
{16},,,,,,,,,,,,,,,,
{16},,,,,,,,,,,,8-4[8:1],,,,
{16}8bxpp7b[8:25]`4xpp3[128:399],,,,,,,,,,,,,,,,
{16},,,,,,,,,,,,,,,,
{16},,,,,,,,,,,,,,,,
{16},,,,,,,,,,,,,,,,
{16}2-5^4-7[8:19]/8<1[8:19],,,,,,,,,,,,,,,,
{16},,,,,,,,,,,,,,,,
{16},,,,,,,,,,,,,,,,
{16}3h[8:3]/8,,,,,,4h[8:3],,,,,,5,,,,
{16}7b/5b>1[16:9],,,,,,7,,6x,,,,,,,,
{16}4<8[16:9],,,,,,2,,3x,,,,,,4,,
{16},,4/8h[4:1],,,,5>1[16:8],,6xpp7[16:6],,,,,,,,
{16},,,,,,71,,6xh[4:1]/2x,,,,5h[4:1],,,,
{16}4-6[16:2],,,,3-7[8:1],,,,7-3[8:1],,6,,5,,,,
{16}5^8[8:1],,,,1,,2^5[8:1],,,,1,,8,,,,
{16}6,,6,,57,,8,,3,,3,4,2,,1,,
{16}28,,3,7,4,6,3,5,2b,4,3,7b,5,6,1hb[8:1],,
{32},8x/2x,37,46,5w1[8:1],,,,{16},,5x,,,,3xh[8:1],,7xh[8:1],,5x-1[8:1],,
{16},,,,A6,E6,E5,A4,2,,2V86[32:7]/8,,27,,2/6<4[16:6],,
{16},,,,4b,,,,E7,,B8,,B4,,E3,,
{16}6,,5h[8:1],,4h[8:1],,3,,1,,25,,47,,8h[8:1],,
{32},1x/7x,62,53,4w8b[8:1],,,,{16},,4x,,,,6xh[8:1],,2xh[8:1],,4x-8[8:1],,
{16},,,,3,,3,,7,,7V13[32:7]/5,,74,,7/3>5[16:6],,
{16},,,,5b-3^4-7[32:15],,,,2,,2-6[32:3],,,,,,
{16},,5,,7-3[8:1],,4-1[8:1],,7,,4,,,,,,
{16}8b/2b,,1,,6x,,3,4,3^8[8:1],4,3,,7x,,,,
{16}6,,8,,2x,,5,4,5^8[8:1],4,5,,1x,,,,
{16}2,,8,,6x,,3,4,2^7[8:1],4,3,,6x,,5,,
{16},,3,4,2x,,71,,4x/3x,,6,5,8x,,,,
{16}37,,7,,3xh[8:1],,5,4,6^1[8:1],4,5,,1x,,,,
{16}2,,8,,6xh[8:1],,3,4,2^7[8:1],4,3,,7x,,,,
{16}6,,4,,2xh[8:1],,7,1,8-4[8:1],1,7,,4x,,,,
{16}26,,3,5,3,,78,,16,,1h[4:1]/6,,,,{32}4bxz8[32:6],3bx-7[32:5],2x,1x,
{32}8x,7x,6x,5x,,,,,{16},,,,2/6b,,4b^1[8:1]/8^5b[8:1],,,,4/8b,,
{16},,2/4x,,5x/7,,1x/8x,,{32}E3,B3,B4,E5,E7,B6,B5,E5,Ch[64:1],,,,,,,,
{16}1,,7,,2/6,,3,5,4,,1/7<3[32:5],,,,7/3,,
{16},,1,,28,,1,,37,,6,4,5,,1,,
{16}2-6[8:1]/6,,,,2x/1x,,,,7-3[8:1],,1,,7x/8x,,,,
{16}2b/8x,,7,5,6,,1x/7b,,2,4,3,,65,,4/8^5[8:1],,
{16},,5b/8,,2^5[8:1],,1b,,2/4b,,7-3[8:1],,8b,,3b/7b,,
{16},,1,1,28,,,,5h[16:1],,4h[16:1]/6h[16:1],,7h[16:1]/3h[16:1],,8h[16:1]/2h[16:1],,
{16}1,7,1,7,2,4h[8:1],,3,5,4h[8:1],,6,5,7,5,7,
{16}1,8,2,1,3,5h[8:1],,4,6,5h[8:1],,7,2,8,2,8,
{16}3h[8:1],,4,2,6h[8:1],,5,7,3,4,2,4,3,5,1,5,
{16}8,6,7,6,5,6,4,6,3,5,2,6,1x/7x,,,,
{16}8bx,2,8,2,7,5h[8:1],,6,4,5h[8:1],,3,4,2,4,2,
{16}8b,1,7,8,6,4h[8:1],,5,3,4h[8:1],,2,7,1,7,1,
{16}6bh[8:1],,5,7,3h[8:1],,4,2,6b,4,5,3,7,4,5,2,
{16}8b,3,6,2,4,1,7,3,{12}8bxh[12:1],5xh[12:1],6xh[12:1],1xh[12:1],4xh[12:1],3xh[12:1],
{24}1,2,3,4,5,6,{16}7b,,,,8x,5x,8x,5x,7x,6x,7x,6x,
{16}8x,5x,8x,5x,4x,3,2,1,5x,4,3,2,6x,5,4,3,
{16}7,1,7,1,6,2,6,2,8,4,8,4,7,5,6,4,
{16}5,3,4,2,8,1,8,1,7x,6,5,4,1x,2,3,4,
{16}6b,,6,,48,,6,5,7,,7,5,6,,48,,
{16}2b,,3,4,3,4,2,5,3b,4,1,6,3,4,8,,
{16}2b,5,3,6,4,7,3,6,1b,5,2,6,4,8,3,7,
{24}1b,2,3,5,6,7,2,3,4,6,7,8,{32}3b-7b[8:1],4,5,6p4[118#96:191],7,8,1,2p8[171#96:277],{16}Cf,,,,
{16},,,,,,,,,,,,,,,,
{16},,,,,,,,,,,,,,,,
{16},,,,,,,,,,,,,,,,
{16},,,,,,,,,,,,,,,,
{16}2h[2:3]/1,,,,,,E3,,,,E4,,,,E5,,
{16},,,,,,,,C,,,,,,,,
{16}8/7h[2:3],,,,,,,,D7,,D6,,,,D5,,
{16},,,,,,,,C,,,,8v7[32:6],,1s5[8:3],,
{16},,,,,,,,,,,,3,,3h[8:5],,
{16},,,,5,,,,4-6[32:3],,,,4x-2^3v1[8:4],,,,
{16},,,,,,,,7,,7h[8:7],,,,2h[8:5],,
{16},,,,,,,,,,,,3^5[16:5],,6^4[16:3],,
{16},,,,,,,,1h[4:2]/8h[4:2],,,,1?s5b[4:2]`8?z4[128:63],,,,
{16},,,,,,,,,,,,2h[8:1],,6-2[8:4],,
{16},,,,,,2,,,,1,,,,7>3V57[16:13]`8>4V68b[16:13],,
{16},,,,,,,,,,,,,,,,
E
