&title=the EmpErroR
&artist=sasakure.UK
&first=0
&des=心白-HW
&lv_7=36
&des_7=心白-HW
&inote_7=
(240){1},,{4}7/3,
{8}3,2,7/2,3,{4},{16}2,
3,4,3,{8}2,2/8h[8:3],1,2,{4}1,
{8}2/7,1,8,1,2/7,1,8,1,
7/2,8,1,2,7/1h[8:3],8,7,8,
2/7,1,2,7,1,{4},{8}1,
{16}1,8,1,8,1,8,{8}7/2,1,2/7,1,1,
3/6,3/6h[4:1],,8,7/1,8/2,{4}1/3,
{8}7/8,7/1,7/2,7/3,7/8,7/1,7/2,7/3,
{4}7x/3x,7/3,{8}7/2,3,7,8/3b,
7,8/3b,7,8/3,7/2,8/3,7/2,2,
7,8,7/2,8,7/1,2,7,8/2b,
7,8/2b,7,8/2,{16}7,1,8,2,{8}1/7,1,
7,8,6/2,7,6/1,2,6,7/2b,
6,2b/7,6,7,6/2,7/2,{4}1/6,
7h[8:3],{8}2,2h[2:1],{4},{8}7,7,
8/7h[8:7],1,2,3,8,1,2,3,
7/4,3,7/4,5,7/4,3,4/7,5,
{16}7,3,4,5,{8}6,3,7/4,5,7/4,3,
4/7,3,4/6,5,6/4,3,4/6,5,
{16}6,5,4,5,{8}6/3,4,5/6,4,3/6,5,
6/4,3,2/6,3,4/6,3,2/6,3,
6/2,5,2/6,5,6/2,5,{16}2/6,5,4,5,
{8}6/2,5/2,6/2,2/4,6/2,5/2,4/2,2/3,
2/3x,4x/2,5x/2,2/6x,2/3x,2/4x,5x/2,6x/2,
2x/7h[4:1],1,2x,8/7h[4:1],,2,1,8/7h[4:1],
,2,1,8/7h[4:1],,2,{4}7/1,
{8}6x/3h[4:1],5,6x,4/3h[4:1],,6,5,4/3h[4:1],
,6,5,4/3h[4:1],,6,{4}5/3,
{8}7/2,8,1b,8,{16}7/2,8,{8}1b,7,8/2,
1b,8/2,7,8/1b,7,8/2,1b,8,
7h[4:1]/2h[4:1],{4},{8}7/2,,7/1,,8/2,
7/1,7/2,,7/2,8/2,7/2,,7/2,
6/3,5,4b,5,{16}6/3,5,{8}4b,6/3,5,
4b,5,6/3,5/4b,6/3,5,6/4b,5,
6/4xh/4?>3[0##0.125],3xh[4:1],6,6b/3?<4>3[0##0.125],3xh[8:1],6b/3?<4>3[0##0.125],3xh[8:1],6b/3?<4>3[0##0.125],
{16}6h[16:9],{2},{16}6?>5[0##0.0625],3/5xh[16:1],5?<6[0##0.0625],{8}4/6xh[8:1],5,
6/3,4,5b,4,{16}6/3,4,{8}5b,3,4/6,
5b,6/4,3,4/5b,3,4/6,5b,4,
6h[4:1]/3h[4:1],{4},{8}6/3,,3/5,,4/6,
3/5,6/3,,6/3,4/6,6/3,,6/3,
7/2,1,8b,1,{16}7/2,1,{8}8b,7/2,1,
7/2,7/2,7/2,7/2,7/2,7/2,7/2,7/2,
7/2b,8,8/2,7/2b,{4},{8}2/7b,1,
1/7,2/7b,{4},{8}7/2b,8,8/2,7/2b,
{4},{8}2/7b,1,1/7,2/7b,1,8,
7/2b,1,7b/2,8,6/3b,4,6/4,6/3b,
{4},{8}3/6b,5,3/5,3/6b,{4},{8}6/3b,
4,6/4,6/3b,{4},6b/3,
{16}4,6,4,6,3,7,3,7,2,8,2,8,1,1,1,1,
{8}7/3,1,7/3,7bh[4:1]/1h[4:1],{4},{8}3/7,1,
3/7,3bh[4:1]/1h[4:1],{4},{8}7/3,1,7/3,7bh[4:1]/1h[4:1],
{4},{8}3/7,1,3/7,3bh[4:1]/1h[4:1],{4},3x/7x,
2x/6x,{8}6/2,8,6/2,8bh[4:1]/6h[4:1],
{4},{8}2/6,8,2/6,8bh[4:1]/2h[4:1],{4},{8}6/2,
8,6/2,8bh[4:1]/6h[4:1],{4},{8}2/6,8,
2/6,8bh[4:1]/2h[4:1],{4},{8}7/3,3/7,3/7,3/7,
3/7,4,6,7/3,4,7/5,7/4,{16}5,6,
{8}7/3h[8:3],6,5,4,4/3,7/3h[8:3],6,5,
4,{16}6,4,5,3,4,5,{8}3,4,3/6,3/6h[2:1],
4,5,4,3,7/2,7/2,7/2,7/2,
7/2,7/2,7/2,7/2,7/2,7/2,{16}7/2,1,8,1h[16:1],
7,8,7,1,8h[16:1],2,1,2,8,1h[16:1],7,8,7,1,8h[16:1],2,
7,8,8,1,8,2,1,1,8,1,7,8,8,1,8,2,
{8}7,2,6,3,,7,,2,
,6,,3,,7,{4}2,
3/6h[1:1],{8}1,1,,3,,8,
,3,,1,,2,,3,
6h[1:1],8,,3,{6},1,1,
1,1,1,1,1,2,
{4}3/6h[1:1],{8}3,2,,1,,2,
,3,,2,,1,,3,
2/6h[1:1],2,,3,,1,{4}1,
{1},{4}6/3h[1:1],
{8}8,8,,6,,1,
,6,,8,,7,,6,
3h[1:1],1,,6,{6},8,8,
8,8,8,8,8,7,
{4}6/3h[1:1],{8}6,7,,8,,7,
,6,,7,,8,,6,
7/3h[1:1],7,,6,,8,{4}8,
{1},{8}2b/6b,
{4},{8}2/6,6/2h[8:3],5,4,3,
,3/4,4/5,5/6,{16}4,5,{8}6/3,3/4,4/5,
{16}5,6,5,6,4,5,4,5,3,4,3,4,2,3,2,3,
5,6,5,6,4,5,4,5,3,4,3,4,2,3,2,3,
{4}2b/6b,{8}2/6,7/6h[8:3],8,1,{4}2,
{8},7/8,8/1,1/2,{16}2,1,{8}2,2/1,1/8,
7/1h[4:1],{4},{8}7/2h[2:1],,7,,7,
{16}8,7,8,7,{8}8b,8/2,{16}1,2,1,2,1,8,1,8,
{8}7b/3b,{4},{8}7/3,3/7h[8:3],4,5,6,
,6/5,5/4,4/3,{16}5,4,{8}3/6,6/5,5/4,
{16}6,7,6,7,5,6,5,6,4,5,4,5,3,4,3,4,
6,7,6,7,5,6,5,6,4,5,4,5,3,4,3,4,
{8}3b/7b,{4},{8}7/3,2/3h[8:3],1,8,7,
,1/2,1/8,8/7,{16}7,8,{8}7,7/8,8/1,
2/7,1,7/8,7/1,7/2,1,8/7,7/1,
1/7,1/7,8/2,8/2,{16}7,1,8,2,7,1,8,1,
{4}7b/2h[8:1],{8}2b/7h[8:1],1,7b/1h[8:1],8,{4}2b/8h[8:1],
7b/2h[8:1],{8}2b/7h[8:1],1,7b/2h[8:1],8,{4}2b/7h[8:1],
7b/2h[8:1],{8}2b/7h[8:1],8,7b/2h[8:1],1,{4}2b/7h[8:1],
7b/1h[8:1],2b/8h[8:1],{16}2/7,1,8,1,7/2,8,1,8,
{4}2b/7h[8:1],{8}6b/3h[8:1],5,3b/5h[8:1],4,{4}6b/4h[8:1],
3b/6h[8:1],{8}6b/3h[8:1],5,3b/6h[8:1],4,{4}6b/3h[8:1],
{16}5,6,3,5,4,6,3,4,5,6,3,5,4,6,3,4,
5,6,3,5,4,6,3,4,5,6,3,5,4,5,3,6,
2/7b,1,{8}8,{16}7/2b,8,{8}1,7b/2,1,7/2b,1/8,
{16}2/7b,8,{8}1,{16}7/2b,1,{8}8,7b/2,1,7/2b,1/8,
{16}2/7b,8,1,8,2b/7,1,8,1,{8}2/7b,8/1,7/2b,8/1,
{16}2/7b,1,8,1,2b/7,8,1,8,{8}2/7b,8/1,2b/7,3/6,
6b/3,6/4,6/3b,5/3,3/6b,6/4,3b/6,5/3,
3/6b,6/4,6b/5,4/3,3b/5,3/6,{16}3b/6,5,4,6,
3,4,5,6,3,4,3,6,5,6,3,4,5,4,3,4,
5,6,3,5,4,3,5,3,4,6,4,6,4,3,5,4,
{8}3x/6h[4:1],2,3x,2/6h[4:1],,3,2,3/6h[4:1],
,2,3,2/6h[4:1],,3,{4}3b/6b,
{8}2x/7h[4:1],4,3x,4/7h[4:1],,2,3,4/7h[4:1],
,2,3,4/7h[4:1],,2,{4}2b/7b,
{8}1x/8h[4:1],3,2x,3/8h[4:1],,1,3,2/8h[4:1],
,3,1,2/8h[4:1],,1,{4}1b/8b,
{1}8h[1:1],
{16}1,8,1,8,1,8,1,8,1,8,1,8,1,8,1,8,
1,8,2,7,1,8,2,7,1,8,2,7,1,8,2,7,
1,8,1,8,1,8,1,8,1,8,1,8,1,8,1,8,
1,8,1,8,8,7,1,8,1,8,2,1,1,8,1,8,
{1}1h[2:1],
