&title=ガブチ
&artist=lapix & Mameyudoufu
&first=0
&des=a.k.a日本陳羽凡-[J-pop Ninja] feat.℃_SV
&clock_count=4
&lv_5=13+
&inote_5=(190)
{1},
{4}3h[4:5]/Ch[4:3]/B7/B6/E7,,,,B7/B8/E8f/A7/A8/D8,A6/A5/E6f/B6/B5/D6,E7/B7/B6/Cf/B2/B3/E3,,
{8}4h[4:1],,6<3[4:1],,3>6[4:1],,4,,
{8}5,4,3/5,6,8<5[8:1]*>3[8:1],,8bx,,
{8}5hx[4:1],,3>6[4:1],,6<3[4:1],,5,,
{8}6,7/4,2,3/5,4w8[8:1],,E5f/E4f/A4/B4,,
{8}8hbx[4:1],,1-5[8:1],,7,6>3[8:1],,3,2,,8/5,3,5>3[8:1]/7>1[8:1],,5bx/7bx,,
{8}2xV47[4:1],,7xb<2[4:1],,8x,,
{8}1hbx[4:1],3xq7[8:1],4x,5x,6x,7x,8bx<5[8:1]/2bx>5[8:1],,,,
{8}6hx[8:1],5,6hx[8:1],4,6hx[8:1],3,6hx[8:1],2,6hx[8:1],1,6hx[8:1],4h[8:1],5xq2[8:1],,,,
{8}4hx[8:3],B5,E7,B8,,C,3hx[8:1],4,5hx[8:1],4,3h[8:1],5h[8:1],7h[8:1],1h[8:1],3h[4:1],,Cf,
{8}2h[8:1],4,2h[8:1],5,2h[8:1],6,2h[8:1],7,8,8-5[8:1]/1-4[8:1],,A8/A1/E1f,,,,
{8}6h[8:1],5h[8:1],4h[8:1],3h[8:1],5,7,1xw5[8:1],,1bx<6[8:1]*>4[8:1],,1bxw5b[8:1],,1bx,,Cf,,
{8}1x/8x,2,5/3>1[8:1],,6,6>3[8:1],
{8},8,1,,2,2/3,
{8}4/1-5[8:1],,6h[4:1],,4h[4:1],,5,5,
{16}E4,B4,B5,E6,C1,,E8,B8,B1,E2,E3,,C,,E7,,
{8}3,3,3h[1:1],,B3,,B4,,
{8}B5,,B6,,E8/E2,,E7/E3,,
{8}E6/E4,,Ch[8:1],,
{8}8,7,
{8}6,5,4h[2:1],,C1,,5-2[8:1]*-8[8:1],,,,1v6[8:1]*v4[8:1],,,,
{8}6xv1[8:1],,2xv5[8:1]/6x,,
{8}6xv1[8:1]/2x,,
{8}2xv5[8:1]/6x,,6xv1[8:1]/2x,,
{8}2xv5[8:1]/6x,,2x,,3v8[8:1],,7v4[8:1]/3,,3v8[8:1]/7,,
{8}7v4[8:1]/3,,3v8[8:1]/7,,7v4[8:1]/3,,3v8[8:1]/7,,3,,
{8}6h[2:1],,8x,
{16}1x,2x,3x,4x,5x,,6hx[2:1],,
{8}4,3,2,1,2>5[8:1],1,8-4[8:1],1,,,,
{8}2h[4:1],3,4,5,6,7/2,8,1,8bx/1bxp8<1[2:1],,1bx/8bx,,,,8xh[4:1],,
{8}3hx[4:1],,E7/B6/B7,,5hx[4:1],,E3/B3/B2,,4hx[4:1],,E7/B6/B7,,6hx[4:1],,E3/B3/B2,,
{8}2h[2:1],E1,C,E5,B7/E8,E2/B2,E6/B6,B3/E4,Ch[4:1],,E1,E7/B6/B5/B4/B3/E3/E5,,,
{8}6h[4:1],,E3/B3/B2,,4h[4:1],,E7/B6/B7,,5h[4:1],,E3/B3/B2,,3h[4:1],,E8,
{8}E7,E6,E5,C,
{8}1hx[2:1],B8,B7,B6,B5,Chf[4:1],,E7/B6/B7/B2/B3/E3,,,,,,
{8}1-5[8:1]/8-6[8:1],,1bx-3[8:1]/8bx-4[8:1],,
{8}1bxp5[8:1]/8bx<6[8:1],,1bx>3[8:1]/8bxq4[8:1],,1bx/8bx,,8/1,7,6/5,4,
3/5,,2,,1/6,,7>4[4:1],1,7bx,,4x,5,
{8}7,1x,2x-5[8:1]/5x-8[8:1],6x,2x/5x,,7x,
{16}1x/6x,,2x,,3/5,,6,,5/7,,4,,2,,
{8}3/7,2x-6[8:1]/8x-4[8:1],1bx,2x/8x,,3x/7x,6,
{16}3h[16:2]/5,,,,2,,1x-6[8:1],,8,,7x/1-4[8:1],,,,3x/1x-5[8:1],,
{8},1x/7x,,6,4,7/3>8[4:1],,8<5[4:1],
{8},5bx,,3xv8[8:1]/7x,,7xv4[8:1]/3x,,3xv8[8:1]/7x,,7xv4[8:1]/3x,,
{8}3xv8[8:1]/7x,,7xv4[8:1]/3x,,3xv8[8:1]/7x,,3x,,
{8}1h[4:1],,7,6,5,4,2,4/5,7,6/4,2,3/5,7,5x/2x,4x/7x,8x/3x,
{8}2bxv5[8:1]/6x,,6bxv1[8:1]/2x,,2bxv5[8:1]/6x,,6bxv1[8:1]/2x,,2bxv5[8:1]/6x,,
{8}6bxv1[8:1]/2x,,2bxv5[8:1]/6x,,2x,,
{8}6x,5x/4x,3x,4x/5x,7x,4/6,2,3/5,2-5[8:1],8/1,7-3[8:1],,,,,,
{8}{4}3hx[4:5]/Ch[4:3]/B7/B6/E7,,,,B7/B8/E8f/A7/A8/D8,A6/A5/E6f/B6/B5/D6,
{8}E7/B7/B6/Cf/B2/B3/E3,,,,
{8}1q7q5q3q1[4:15],,7hx[2:1],,,,,,6hx[2:1],,,,,,,,5hx[2:1],,,,,,,,3hx[2:1],,,,,,,,
{8}2,,3h[4:7],,B7/B8,,B6/B5,,E8/B7/B8,,E6/B6/B5,,E8/A8/B8,,E6/A5/B5,,
{8}C,,B4/B3/E4/A4/A3/D4,,B8/B7/E8/A8/A7/D8,,B5/B6/E6/A5/A6/D6,,
{8}1bx-5[8:1]/2bx>4[8:1],,1bx<7[8:1]/2bx-6[8:1],,1bx-5[8:1]/2bx>4[8:1],,
{8}1bx<7[8:1]/2bx-6[8:1],,1bx/2bx,,
{8}7h[4:6]/B3,B4,B3,B4,B3,B4,B3,B4,B3,B4,B3,B4,B3,B4,8h[8:1]/B3,B4,
{8}8h[8:1]/B3,B4,7h[8:1]/B3,B4,7h[8:1]/B3,B4,6h[8:1]/B3,B4,7h[8:1]/B3,B4,
{8}B3/8b-6q4[4:1],,,,
{8}2>5[8:1],,6,7-3[8:1],4,3,2,
{8}1,4bx,1-3-8-4[8:3],8,7-5[8:1],7,,,,
{8}7v2[8:1]*v2[8:1],4,7-3[8:1],4,7v4b[8:1],
{8}2,7,2,
{8}3,5,4,6,5,7,8-3[8:1]*>1-3[8:1],,,,
{16}5x,4x,5x,,3,,2,,8x,1x,8x,,7,,6/4,,
{16}5x,3x,5x,,4,,2,,7x,1x,7x,,
{16}1x/7x,,8bx,8bx,8bx,8bx,8bx,8bx,
{8}1x/7x,6x,4x/5x,3x,2bx>5[8:1]/8bx,1x,8bx-4[8:1],1x,2bx/8bx,3x,5x,,
{8}6bh[4:1]/Cf,,,,3bh[4:1]/Cf,,
{8},,E7,,E8/E2,,E6/E4,,
{8}E7/E3/Chf[8:1],,8,,
{8}7,6,
{8}5,4,3h[2:1],,Cf,,5>2b[8:1]*<8b[8:1],,,,,,
{8}6xv1[8:1]/2x,,2xv5[8:1]/6x,,6xv1[8:1]/2x,,2xv5[8:1]/6x,,6xv1[8:1]/2x,,2xv5[8:1]/6x,,6x/2x,,7v4b[8:1]/3,,3v8b[8:1]/7,,7v4b[8:1]/3,,3v8b[8:1]/7,,7v4b[8:1]/3,,3v8b[8:1]/7,,7v4b[8:1]/3,,7,,
{8}C,,1-7-2-6-3-5[4:6],
{8},,,5h[2:1],
{8},,,,,7h[2:1],,,,,,
{8}1h[2:1],,,,C/B6/B5,,B1/B2,,7x/8xp7<8[8:6],,Cf,,,,,,
{8}6hx[4:1],,E3/B3/B2,,4hx[4:1],,E7/B6/B7,,5hx[4:1],,E3/B3/B2,,3hx[4:1],,E7/B6/B7,,
{8}7h[2:1],E1,C,E5,E4/B3,E8/B7,B2/E2,B6/E6,E5,,C,E3/B2/B1/B8/B7/E7/E1,,,
{8}3h[4:1],,E7/B6/B7,,5h[4:1],,E3/B3/B2,,4h[4:1],,E7/B6/B7,,6h[4:1],,E3,
{8}E5,E7,E1,,
{8}6hx[4:3],E7,E6,E5,E3,E2,E1,,7hx[4:3],8x,1x,
{32}E3,B3,B4,E5,,,,,E1,B8,B7,E7,,,,,
{8},6,7b-3[8:1],,3,2b>5[8:1],,7,8bp4[8:1],,4x,3x,2x,1x,8x,7x,6hx[4:6],5x,4x,3x,2x,1x,8x,7x,
{16}E6,E5,E4,E3,E2,E1,E8,E7,E6,,,,1bx,,,,
{8}7h[4:1]/Cf,,,,2h[4:1]/Cf,,,,
{8}3,4,5,
{8}6/4,,,7,,8b/3b,,2<5[4:1],8,2,,5x,4,
{8}2,8x,7x-4[8:1]/4x-1[8:1],3x,7x/4x,,2x,
{16}8x/3x,,7bx,,6/4,,3bx,,4/2,,5bx,,7x,7x,
{8}6bx/2bx,7x-3[8:1]/1x-5[8:1],8bx,7x/1x,,6bx/2bx,3,
{16}6h[16:2]/4,,,,7,,8bx-3[8:1],,1x,,2bx/8bx-5[8:1],,,,6bx/8bx-4[8:1],,
{8},8bx/2bx,,,5/2,1/6<1[4:1],,1>4[16:4],
{8},4bx,,6bv1b[8:1],,2bv5b[8:1]/6,,6bv1b[8:1]/2,,2bv5b[8:1]/6,,6bv1b[8:1]/2,,2bv5b[8:1]/6,,6bv1b[8:1]/2,,6,,
{8}8h[4:1],,2,4,6,5/4,7,5/4,2,3/5,7,6/4,2b,4bx/7bx,5bx/2bx,1bx/6bx,
{8}7bv4b[8:1]/3b,,3bv8b[8:1]/7b,,7bv4b[8:1]/3b,,3bv8b[8:1]/7b,,7bv4b[8:1]/3b,,3bv8b[8:1]/7bx,,7bv4b[8:1]/3b,,7b,,
{8}3,4x/5x,6,5/4,2,5/3,7,6/4,7-4b[8:1],1/8,A7f/2-6b[8:1],,A2f,,,,
{4}6hbx[4:4]/Ch[4:3]/B2/B3/E3,,,,3hbx[4:4]/Ch[4:3]/B7/B6/E7,,,,B2/B1/E2f/A2/A1/D2,A3/A4/E4f/B3/B4/D4,B6/B5/E6f/A6/A5/D6,B7/B8/E8f/A7/A8/D8,B7/B6/E7,E3/B2/B3,Chf[4:1],
{8}4h[4:1],,6b<3[4:1],,3b>6[4:1],,4,,
{8}5,4,3/5,6,8<5[8:1]*>3[8:1],,8b,,
{8}5hx[4:1],,3b>6[4:1],,6b<3[4:1],,5,,
{8}6,7/4,2,3/5,4xw8b[8:1],,E5f/E4f/A4/B4,,
{8}8hbx[4:1],,1b-5[8:1],,7,,6b>3[8:1],3bx,2,,1b/5b,3b,5bx>3[8:1]/7bx>1[8:1],,5bx/7bx,,
{8}2V47[4:1],,7b<2[4:1],,8x,,
{8}1hbx[4:1],3xq7[8:1],4x,5x,6bx,7x,8b<5[8:1]/2b>5[8:1],,,,6bv3[8:1]/2bv7[8:1],,
{32}Cf,
