&title=匙ノ咒 (feat. 初音ミク)
&artist=r-906; 初音ミク
&first=0
&des=IMRIS
&lv_5=14
&inote_5=(174)
{1},1b,,,,7v2[8:22],,,,
{4}4b>6[4:14],5h[8:1],5,5h[8:1],5,5h[8:1],5,5h[8:1],5,5h[8:1],5,5h[8:1],5,5h[8:1],5,5h[8:1],{8}4,4,6,6,3,3,7,7,1,1,6,6,3,3,6,6,{16}2,7,2,7,2,7,2,7,2,7,2,7,2-4v5[32:8],7,2,7,,,,,,,8h[8:3],,,,,,8-5?[1740000#8:10000],,,,
{8}3,24,13,82,,7,1,6,,7,1,6,7,1,5,1,
{8}6,78,81,1<5[8:2]/2,,3,2,1,B8,E7,C,E6,E4,C,E3,B1,
{8}3,28,17,1h[8:2]/6,,5v4[8:1],5,1b,,3-6[8:1],,7,7-4[8:1],Ch[8:1],,,
{8}8,61,72,8z4[8:2]/3h[8:3],,,,,,3,4,5,6,7,8,1,
{8}8/2,7/1,6,3h[4:1],,5,6/2,,4,,6/3h[8:3],,,5,6/2,,
{8}1/7,2/8,3,6h[4:1],,4,3/7,,5,,3/6h[8:3],,,4,3/7,,
{8}8/2,7/1,6,2v7[16:3],,5,5,,4,,6/3h[8:3],,,5,6/2,,
{8}1/7,2/8,3,6h[8:2],,4,3/7,,5,,3/6h[8:3],,,4,3/7,2,
{8}1,17,17,1/7-4[8:1],,4,2,,
{8}1-3[8:1],,1/4v6[16:3],,,5,7,,
{8}8,82,82,8/2-5[8:1],,5,7,,
{8}8-6[8:1],,8/5V74[16:4],,,3,1,,
{8}2,24,24,2-6[8:1]/4,,5,7,,5-7[8:1],,54,,,4,37,,
{8}8/2,7/1,6,2z6[8:2],,5,5,,4>1[8:2],,1<6[8:2],,6,,4,,
{16}2b/4b,,3,5,4,,2b/6bh[4:1],,,,1,,3b>4[8:7]/7b,,,,
{8},,,,,,,,E8,E4,E6,E2,,5,5,1V75[4:1],,1h[8:2],,,4,4,{16}6,5,6,5,
{32}E5/7x,E4,E3,,{8},,{32}2x/B5,B6,E7,,{8},,{32}8<5[4:3]/B5,C,B1,,{8},
{8},,4,4,3,3,2,2,{16}1,8,1,8,1,8,1,8,1,8,1,8,1,8,1,8,{32}1,2,3,4,5,6,7,8,1,2,3,4,5,6,7,8,1,2,3,4,5,6,7,8,1,2,3,4,5,6,7,8,
{8}1-5[8:10],,,,,,,,,,,,,,,,
{8}E7,E1,B2,E8,,,,C,,A5,,A6,A7,A8,A1,A2,
{8}E3,E1,B7,E2,,,,C,,A4,,A3,A2,A1,A8,A7,
{8}6,5,4,3h[8:2],,4,5,6p4[8:3],
{8},,,,3,2,1,8,
{4}7-5[8:1],1-7[8:1],3-7[8:1],5,4-2[8:1],6-4[8:1],8-4[8:1],2,
{4}1-6[8:1],4-1[8:1],5-1[8:1],7,8<5[4:1],5>2[4:1],2<7[4:1],7<1[4:2],
{8}4h[8:3],,,,4,3,4,5,6<1[16:3],,1,2q5<4[8:11],,5h[8:11],,,
{8},,,,,,,,,,,,2,4,5,7,
{32}3x,4x,5xs1[8:12],,{8},,,,,,,{32}6x,7x,8xz4[8:4],,{8},,,,,,,
{8}2/4,3,4/6,7,8h[8:1],{16}2,2,{8}4,3,4,5/3,6,7/5,4,3/4,5,6/5,
{8}7/5,8,1/2,3,3/4,5,2/4,1,
{8}6h[8:1],8h[8:1],1h[8:1],3h[8:1],2h[8:1],4h[8:1],5h[8:1],7,
{8}6/8,7,8/2,3,8/2,{16}7v1[8:1],1,6,,2b,,
{8},3,24,6,3<6[8:1]/7p2[8:1],C,,,
{8}1,1/5,4/8-4[8:1],26,,5,5<4[8:6],51,
{8},2,3,4,5,6,7,8,
{8}8b,{16}7,5,6,5,7,,2,5,3,4,2,,5,4,6,,2,1,3,8,2,,6,8,4,2,
{16}8b,,2,1,3,8,2,,7,8,6,1,7,,5,6,4,7,3,,6,8,4,2,
{16}8b,,3,7,3,7,3,7,4,8,4,8,4,8,3,1,3,1,3,1,2,4,2,4,2,4,1,5,
{24}2b,3,4,7,6,5,2,3,4,7,6,5,{32}1b,2,3,4,5,6,7,8,1,2,3,4,5,6,7,8,
{8},,,,,,,,E5,,,,,,,,
{8}6-1[8:1],4,6,3,2,8,16,5,
{8}2-5[8:1],4,2,6,7-4[8:1],4-6[8:1],7,,
{8}1-4[8:1],7,1,8,7,5,6-8[8:1]/4,2,
{8}6,2-4[8:1],1,2,5-8[8:1],7-4[8:1],,,
{8}1-3[8:1],4,1,5,1-6-2[8:2],6,1,8bz4[8:2],
{8},3,2,1,8,7,64,53,{16}2,4,2,4,3,5,3,5,4,6,4,6,5-1[8:1],7,5,7,
{32}B5,C,B1,,{8},,,,,,,
{8}3-6[8:1],5,3,7,8,1,83,4,
{8}7-4[8:1],5,7,3,2-5[8:1],5-1[8:1],2,,
{8}8-5[8:1],2,8,1,2,4,3-1[8:1]/5,7,
{8}3,7-5[8:1],8,7,4-8[8:1],2-6[8:1],,,
{8}7-3[8:1],5,7,1,2v1[8:1],5,2,8,
{8},75,8,64,1,3>5b[16:6]/5,1,4/3,
{8}5v8[8:1]*-1[8:1],5,,,,45,27,,1-5[8:1]/6,2/5-1[8:1],1,8b>3[8:1]*<5[8:1],,8bw4b[8:1],,8bpp3[8:13]*qq5[8:13]/Cf,
{1},,
{8}2qq7[8:12],,E5,,,,E5,,,,E5,,,,E5,,
{8}6pp5[8:12],,E4,,,,E4,,,,E4,,,,E4,,
{8}2<3[8:12],,E5,,,,C,,
{8}2h[8:1],,1h[8:1],,8h[8:1],,7h[8:1],,
{4}5h[8:1]/6h[8:1],6h[8:1]/4h[8:1],6h[8:1]/3h[8:1],6h[8:1]/2h[8:1],
{4}6h[8:1]/1h[8:1],6h[8:1]/8h[8:1],6-1[8:1]/7h[8:1],6/5,
{4}4h[8:1]/3h[8:1],3h[8:1]/2h[8:1],3h[8:1]/1h[8:1],3h[8:1]/8h[8:1],
{4}3h[8:1]/7h[8:1],3h[8:1]/6h[8:1],3-7[8:1]/5h[8:1],3/4,
{8}81,1,12,2,23,3,34,4,45,5,56,6,67,7,78,8,
{16}1,8,2,7,3,6,4,5,3,4,2,5,1,6,8,7,
{16}1,8,2,1,3,4,2,5,2,6,2,7,{32}1x,2x,3x,4x,5x,6x,7x,8x,
{8}E1,C,,E7,E3,E5,C,E6,E1,C,,7,3,5,1b,2-5[8:1]/6-2[8:1],
{8},2b<4[8:2]/6b/Cf,,3,2,1,8,7-4[8:1]*-3[8:1],,7,,2,38,6,2-6[8:1]/4,1,
{8}2-5[8:1],5-1[8:1],2,8,7,5p3[16:5]/2,3,65,
{8},1-6[8:1],,1,2,51,37,4>1[8:1]/8<5[8:1],
{8},8z4[8:2]/4,,6,7,8,1,2-6[8:1]*-5[8:1],
{8},2,,7,16,3-1[8:1],1-4[8:1],4-8[8:1],,8,6,7-3[8:1],,2,1pp5[16:6],5,
{8}1/6,,8,8v6[8:1],,4,4-2[8:1],7-3[8:1],
{8}4-8[8:1],7-5[8:1],4,7,1,2/4>1[8:1],35,4-7[8:1]/6,,42,,1,2-6[8:1]/1-5[8:1],,12,,
{8}74,6,2V84[8:2]/5,3,2/5-1-7-4-2[16:7],6,5,3,2,1-5[8:1],,7,6>3[8:1],6,2b,,
{8}8>3[8:1],,86,7,1<6[8:1],,12,3pp6[8:3],,3h[8:2],,,1,,8-6-1-5-2-4<3[8:9],7h[8:4],
{8},,,,,,,,A6,E6,,B5,C,B4,E4,A3,8bw4[8:10],,,,,,,,,,,,,,,4v7<6-4<5[8:11],4qq2-4<5[8:10],,,,,,,,,,,,,,,,2-6[8:10],,,,,,,,,,,,,,,7,6>3?[8:10]`7>2[8:10],,,,,,,,,,,,,,,,
{8}5-8[8:1],,2-5[8:1],,{16}7x-2[8:1],,,4x,,,4x,,
{8}5-2[8:1],,8-5[8:1],,{16}3x-8[8:1],,,6x,,,6x,,
{8}5<8[8:2],,8>3[8:2],,{16}3x<6[16:3],,,6x<4[16:6],,,1x-5[16:3],,
{8},,,,6,8,1,3,2,2,4,4,6,6,8,8,{16}1,7,1,7,2,6,2,6,3,5,3,5,4qq1>8[8:7],4,4,4,
{8},,,,,,2-5?b[12:1],,1-5?b[12:1],,8-5?b[12:1],,,,C/E7/E3,,
{32}1b/8bh[8:6]/D1f,2,3,4,5,6,7,,1,2,3,4,5,6,7,,1,2,3,4,5,6,7,,1,2,3,4,5,6,7,8,
{32}1bh[8:6]/6,5,4,3,2,,8,7,6,5,4,3,2,,8,7,6,5,4,3,2,,8,7,6,5,4,3,2,1,8,7,
{32}6bh[8:6]/3,4,5,,7,8,1,2,3,4,5,,7,8,1,2,3,4,5,,7,8,1,2,3qq6<4[8:5],4,5,6,7,8,1,2,
{32}3,,,,,,,,,,,,,,,,5w1[8:1],,,,,,,,5b,,,,,,,,
{32}7b/3,6,5,4,3,2,1,8,7,6,5,4,3,2,1,8,7,6,5,4,3,2,1,8,7-5-8-4-2[16:7],6,5,4,3,2,1,8,
{8}7,,,,1>4[8:1],,{32}1b/5qq2>1s5[64:62],6,7,8,,,,,
{8}7bh[8:4]/5b,,,,,,,,
{8}6,8,2,4,{8}6-3[8:1]/2-7[8:1],,2b/6b,,
{8}1-6[8:1],4-8[8:1],1,4,2-6[8:1],5-8[8:1],2,5-2<7-3b[8:3],
{8},5,8,6,4w8[8:1],,4,,
{8}7-3[8:1],4-8[8:1],7,4,6-2[8:1],1-4[8:1],6,1<4[16:3],
{8},5,2V47b[4:1],1,7xV52b[4:1],,2x,,
{8}1-5[8:1],7-3[8:1],1,7,2-6[8:1],4-8[8:1],2,4>7[8:2],
{8},7,6,5,4-8[8:1]/8-3[8:1],,4/8,,
{8}7-4[8:1],2-6[8:1],7,2,8-3[8:1],5-1[8:1],8,5-7-4-8b[8:3],
{8},8,3,1,{16}A2,A3,A4,A5,A6,A7,A8,A1,
{24}2xh[8:4]/B4,B5,B6,{8}E7,,,5,,7,,
{24}8xh[8:2]/B4,B3,E3,{8}A2,,,1,,3,,
{24}4xh[8:2]/E7,E8,E1,{8}E2,,,1,,8h[8:6],,
{24}A3,A4,A5,{8}A6,,,,,,,
{24}4,3<5[8:6],2,{8},,,,,,,
{8}8h[8:6],,,5?<4b[2:1],,,,,
{8}6,7/5,8/6,1/7,,2,8,3,,2,8,3,2,8,4,8,
{8}2,2/1,1/8,8>4[16:5]/7,,6,,8,B1,E3,C,E4,E6,C,E7,B8,
{8}6,7/1,8/2,8h[8:2]/3,,4v5[8:1],4,8b,,6-3[8:1],,2,2-5[8:1],8,2,,
{8}1,3/8,2/7,1s5[8:2]/6,,7,7,,8,3,4,5,6,7,8,1,
{8}34,2,35,6,56,{16}7,8,7,,{8}1,6,57,4,34,2-6[8:1],6-3[8:1],2,,
{8}5,36,1,28,7-4[8:1],4-8[8:1],7,,
{8}3h[8:1],1h[8:1],8h[8:1],6h[8:1],7h[8:1],5h[8:1],4h[8:1],2h[8:1],
{8}3,34,45,56,7,{16}4-8[8:1],5,2,,{8}4,
{8}1,7h[8:1]/2h[8:1],,34,2/6,C,78,81,
{8}2-5[8:1]/6,,2/5,8-4[8:1],,8-3[8:1]/2-7[8:1],,8-5[8:1]/2-5[8:1],,8/2,,
{8}4b/6b,8b/2b,3b/4b,7b/8b,1b/5bw1[38.0625#16:10],
