&title=STAR BEAT!〜ホシノコドウ〜
&artist=Poppin'Party
&first=-0.01
&lv_5=14.5
&des_5=伊吹風梓
&des=伊吹風梓
&inote_5=
(195){4},,,,,,,,{1}4h[1:1]/5h[1:2],
{16},,,,3,2,1,8,7,6,4,3,2,1,8,7,
6,8b/4bh[16:29],,,,,,,,,,,,,,,,,,,5,
6,7,8,1,2,3,5,6,7,8,1,
{1}2h[1:1]/6h[1:1],
{4},D6/A1/D2/A5/E6/E2,B8/B4/B5/B1/E1/E5,B7/B6/B2/B3/E7/E3,
{1}Cfh[1:2],
,4h[1:2],
{16},,,,6,7,8,1,2,3,5,6,7,8,1,2,
3,1b/5bh[16:29],,,,,,,,,,,,,,,,,,,4,
3,2,1,8,7,6,4,3,2,1,8,
{1}7h[1:1]/3h[1:1],
{4},4b/8b,5b/1b,6b/2b,
{24}5b/3b,6b/2b,1b/7b,8bw4b[2:3],{1},{4},,,{16},{48},{8}3,
4,5,6,5,4,3,6,
5,6,7,3,4,3,{4}2,
{8}1b/8b,,,5/1-5<4[8:5],5/1,1/5,,,,,,6,
{4}6<3>6[2:3],3,
4,5,{8}4,4,,2h[8:1],
,,1,1,,3,4,3,
4-6-8[8:3],,,8,8-5-3[8:3],,,3,
{4}3-8-6[2:1],8,{8}6,6w2[8:1],,6,
,,{4}8<5b[8:1]/4>1b[8:1],{2}4-7b[8:1]/8v3b[8:1],
{8},,7,3,{4}7>2v4[8:3],4/7,
3>8[4:1],8<5[4:1],5>1[4:1],1-7[4:1],
7-5[4:1],5-3[4:1],3-1[4:1],1p5[4:1],
5p1[4:1],1,{8}8,8w4[8:1],,8b,
,2/6,{4}2/6,{8}4h[8:1],3h[8:1],2h[8:1],1h[8:1],
8h[8:1],7h[8:1],6h[8:1],5h[8:1],1>4[4:1],1,,5,
{4}5<8[8:1],5,{8}1-5[8:1],8-4[8:1],1-3[8:1],8-6[8:1],
{4}1,{8}2,1,{4}8>3[8:1],{24}8b/7b,6,5,4,,,,,,,,,{8}3p7[8:1],
4,{4}3,{8}6q2[8:1],5,
{4}6,{8}5x-2[8:1]/1x-6[8:1],8x/4x,{4}1x/5x,1>4[8:1],
1<6[8:1],1-4[8:1],1-6[8:1],5<8[8:1]/1>4[8:1],
1bp5[8:1]/5bp1[8:1],1b/5b,{8},4>1[8:1],8<5[8:1],4,
{4}8>3[8:1],8-5[8:1],8-3[8:1],4>1[8:1]/8<5[8:1],
8bq4[8:1]/4bq8[8:1],8b/4b,{8},3<6[8:1],3q7[16:1],3v8[8:1],
{4}3-1[16:1],6-2[8:1],6/8-4[8:1],8/3,
{8}1>3[8:1],4h[8:1],1<7[8:1],6h[8:1],1-3[8:1],4h[8:1],1-7[8:1],6h[8:1],
1>4[8:1],4h[8:1],1<6[8:1],6h[8:1],1-4[8:1],4h[8:1],1-6[8:1],6h[8:1],
{4}1,{8}8/3,3/8,,7/2,{4}2-5[8:1]/7-4[8:1],
2/7,{8}3x/6x,6x/3x,,1/8,{4}1-3[8:1]/8v3[8:1],
1bv6[8:1]/8b-6[8:1],1b/8b,{8},7v6[4:1],2v3[8:1],7,
{4}2,1-3<4[8:1]*-4[8:1],1-7<6[8:1]*-6[8:1],1>3[8:1]*v4[8:1],
1b<7[8:1]*v6[8:1],1b,{8},5-8[8:1],5,3-8[8:1],
{4}3,7-2[8:1],3-6[8:1],8-5[8:1],
{8}1-5[8:1],1,7-4[8:1],7,2-5[8:1],2,8-4[8:1],8,
2-5[8:1],2,2/7-4[8:1],7,7/1-5[8:1],1,{4}1/8,
{16}6b,4,5,4,5,4,7b,4,5,4,5,4,8b,4,5,4,
5,4,7b,3,6,4,5,3,6b,4,5,3,6b,4,5,3,
6b,2,{24}7,,1,8bx,1,8,1,8,1,8,1,8,{96}1bx,,,2,,,{32}3,4,1bx/5bx,8,7,6,5bx/1bx,2,3,4,
{4}5bx,{32}4bx/8bx,3bx/7bx,2bx/6bx,1bx/5bx,8,7,6,5,4bx/8bx,3bx/7bx,2bx/6bx,1bx/5bx,,,,,,,,,,,,,{8}6b>5-3[8:1],
7,8,1<8-6[8:1],2,3,4>3-1[8:1],5,
6,7<6-4[8:1],8,1,2h[16:1],2h[16:1],2b>3-5[8:1],1,
8,7>8-2[8:1],6,5,4<5-7[8:1],3,{4}2,
{16}2-5[8:1],1,2,1,{8}2,7-3[16:1],7,8-4[16:1],8,1-5[16:1],
1,2-6[16:1],{4}2,{16}5,4,5,4,{4}5,
5/1-5[8:1],6-8[8:1]/1-3[8:1],1/6-4[8:1],6/1-6[8:1]*-4[8:1],
1,{8}3x/5x,2x/6x,{4}1>2-4b[8:1]/7<6-4b[8:1],1v4b[8:1]/7v4b[8:1],
{8},,2x/6x,3x/5x,{4}4pp4b[16:3]*qq4b[16:3],4x,
{8}3x-7[8:1],7xV51[8:1],3,1,8,7,1-5[8:1],5V37[8:1],
1,7,6,5,7-3[8:1],3V51[8:1],7,1,
{4}2,1/6,{32}6-1[8:1]/2-5[8:1],3,4,5,6,7,8,1,{4}2,
{8}4x/8>2[8:1],4,5/8-3[8:1],5,6/8-4[8:1],6,8,7,
{32}3x/7w3[4:1],2x/6x,5x/1x,8x/4x,3x,2x,1x,8x,{8}7x,Cf,{2}A4/A2/D4/D3/A3,
{4}1v4[8:1]/8-5[8:1],8/1-5<4[8:5],{16}1x,,,D6,D7,D8,D1,D2,
D3,D4,,,{8}E6,E5,{4}E4,C,
{8},,E2,E1,{4}E8,C,
{8},,6<3[2:1],4,{4}4,5,
5,{8}3>6[2:1],4,{4}4,5,
5,3-6[4:1],6-1[4:1],1-4[4:1],
4-7[4:1],{8}7-2[4:1],7,,,7h,7h,
{4}3h[1:1]/7h[8:3],,,4h[4:3],
,,3-7[8:1],4-8[8:1],
5-1[8:1],6-2[8:1],7-3[8:1],8-4[8:1],
1-5[8:1],2-6[8:1],{8},,5,5,
4,4,6,6,3,3,7,7,
{16}2bx,4,3,8,6bx,7,1,3,2bx,7,5,6,{24}4bx,5,4,5,4,5,
2bx,3,4,7bx,6,5,1bx,2,3,8bx,7,6,{32}1bx,2,3,4,5b,6,7,8,1bh,2h,3h,4h,5bh,6h,7h,8h,
{2}1bh/5bh,B7/B6/B5/E5/B4/B3/E3/B2/Cf/E7,
{1}6b<3>6[4:7],
{4},4,4,4,
{1}3b>6<3[4:7],
{4},5,5,5,
{1}6b<3>6[4:7],
{4},B5,B4,E4,
2b-6[8:1],6-2[8:1],2-6[8:1],6-2[8:1],
8-4[8:1],4-8[8:1],{2}8-4[8:1],
{4}3V51[2:1],7,1V35[2:1],7,
5V37[2:1],6,7V15[2:1],6,
5bV31[2:1],7,1s5[2:1],7,
5z1[2:1],7,1V73[2:1],4,
3bV15[2:1],4,5V31[2:1],7,
1s5[2:1],6,5p8[2:1],7,
{1}8b-5[2:3]*z4[2:3],
{8},,,,,,,,2,
1,2,1,3,8,3,8,
4,7,4,7,5,6,{4}5/6,
{8}7,8,7,8,6,1,6,1,
5,2,5,2,4,3,{4}3/4h[16:51],
{1},,{4},,,{16}E4,
B4,B5,E6,
E
