&title=神凪
&artist=BlackY feat. Risa Yuzuki
&first=0
&des=伊甸园
&clock_count=4
&lv_6=14.9
&inote_5=(185){4},,,,,,
{24}5,6,7,8,1,2,3,4,5,6,7,8,
{4}1b>6[4:4]*pp6[4:4],,,,,,
{4}8h[4:1],,
{4}7qq2[4:4]*<2[4:4]/1,,,,,,
{4}1h[4:1],,
{4}8/2pp4>5[8:9]*pp8[4:3],,,,,,
{32}4,3,2,1,8,7,6,5,4,3,2,1,8,7,6,5,
{8}4b/8-2>3[8:1],,
{8}8-6>5[8:1],,
{8}8-4[8:1],,
{8}8-5[8:1]*-6>5[8:1],,
{8}8-3[8:1]*-2>3[8:1],,
{8}8w4[4:1],,
{8}8,,,,
{8}1-7<6[8:1],,
{8}1-3<4[8:1],,
{8}1-5[8:1],,
{8}1-4[8:1]*-3<4[8:1],,
{8}1-6[8:1]*-7<6[8:1],,
{8}1w5[4:1],,
{8}1,,,,
{8}1-4[8:1]/2,,
{8}8-5[8:1]/1,,
{8}7-3[8:1]/8,,
{8}7/1,,
{8}5-8[8:1]/6,,
{8}4-1[8:1]/5,,
{8}3-7[8:1]/4,,
{8}3/5,,
{12}6,5,7,
{12}3,4,2,
{12}7,5,8,
{12}2,4,1,
{24}7,6,5,3,2,1,
{24}8,7,6,4,3,2,
{24}7,6,5,3,2,1,
{24}8,7,6,4,3,2,
{4}8b,,
{16},,,,,,,,,,,,,,,,,,,,,,,,,,,,,,,,,,,,,,,,,,,,
&inote_6=(185){4},,,,,,
{24}5,6,7,8,1,2,3,4,5,6,7,8,
{4}1b>6[4:4]*pp6[4:4],,,,,,
{4}8h[4:1],,
{4}7qq2[4:4]*<2[4:4]/1,,,,,,
{4}1h[4:1],,
{4}8/2pp4>5[8:9]*pp8[4:3],,,,,,
{32}4,3,2,1,8,7,6,5,4,3,2,1,8,7,6,5,
{8}4b/8-2>3[8:1],,
{8}8-6>5[8:1],,
{8}8-4[8:1],,
{8}8-5[8:1]*-6>5[8:1],,
{8}8-3[8:1]*-2>3[8:1],,
{8}8w4[4:1],,
{8}8,,,,
{8}1-7<6[8:1],,
{8}1-3<4[8:1],,
{8}1-5[8:1],,
{8}1-4[8:1]*-3<4[8:1],,
{8}1-6[8:1]*-7<6[8:1],,
{8}1w5[4:1],,
{8}1,,,,
{8}1-4[8:1]/2,,
{8}8-5[8:1]/1,,
{8}7-3[8:1]/8,,
{8}7/1,,
{8}5-8[8:1]/6,,
{8}4-1[8:1]/5,,
{8}3-7[8:1]/4,,
{8}3/5,,
{12}6,5,7,
{12}3,4,2,
{12}7,5,8,
{12}2,4,1,
{24}7,6,5,3,2,1,
{24}8,7,6,4,3,2,
{24}7,6,5,3,2,1,
{24}8,7,6,4,3,2,
{4}8b,,
{16}6,5,7,4,
{16}8,7,6,5,4/3b,,
{16}3,4,2,,
{16}2,4,3,,
{16}3,4,2,,
{16}2,4,3-1[8:1],,
{16}5,5,3-5[8:1],,
{16}7,7,3-1<8-4[4:1],,
{16}6,6,3,,
{16}5,,
{4}7h[4:1],
{16}1,2,3,4,
{16}5/6,7,8,1,2,3,4,5,
{16}6/3,2,1,8,7,6,5,4,
{16}3/6,7,8,1,2,3,4,5,
{16}6/3b,,
{16}6,5,7,,
{16}7,5,6,,
{16}6,5,7,,
{16}7,5,6-8[8:1],,
{16}4,4,6-4[8:1],,
{16}2,2,6-8>1-5[4:1],,
{16}3,3,6,,
{16}4,,
{16}2,3,4,5,6,7,8,1,
{16}2/6,5,4,3,2,1,8,7,
{8}6/3b>1-5[4:1],6/3b,,,
{16}6,6,4,5,
{16}4,5,4,5,
{16}3-5[8:1]/6-2[8:1],,,,
{4}3b/6b,
{12}1,1,5,
{12}8,8,4,
{12}7h[12:1],3,5h[12:1],
{12}2,6h[12:1],4,
{12}8h[12:1],2,4h[12:1],
{12}1,7h[12:1],5,
{16}1h[4:1],2,3,4,5,6,7,8,
{16}1h[4:1],8,7,6,5,4,
{24}3b,4,3,
{12}4,,3/5,,
{12}6/4,,4/2,,
{12}8/6,,3/5,,
{8}7/4,4,4/5,4,
{16}5,3,5,2,5,1,5,8,
{8}6b,6,5/4,5,
{16}4,6,4,7,4,8,4,1,
{12}3b,3,3,
{12}1,1,1,
{12}7,7,7,
{12}5,5,5,
{32}1,2,3,4,7,6,5,4,
{32}8,1,2,3,8,7,6,5,
{32}1,2,3,4,5,6,7,8,
{32}1,2,3,4,5,6,7,8,
{4}1bs5[4:1]/5b,,,
{8}1/2,3/4,4/5,6/5,7/8,7/1,
{8}6-2[8:1]/2-6[8:1],,,,
{24}8/4,7,6,5,4,,
{16}2-4v7[4:1],1,2,8,2b/7>3[4:1]*>3[4:1],,,,
{16}5q1q6<4[16:7],,,,5,,4,,3h[4:1],,,,
{24}5,6,7,8,1,2,3,4,5,6,7,8,1b,,,
{8}1s5[4:1]/8z4[4:1],,,,,
{12}2hb[24:1],2h[24:1],2h[24:1],4hb[24:1],4h[24:1],4h[24:1],6hb[24:1],6h[24:1],6h[24:1],
{8}8,1/8,
{24}1/8,2/7,3/6,4/5,,,
{8}7-5-1[8:1]/2,,
{16}7/2,,,,
{24}8h[8:1]/3,4,5,6,,,
{8}7/8,
{24}6/1h[8:1],5,4,3,,,
{8}1/2,
{24}1/2,8/3,7/4,6/5,,,
{8}7bz3[8:1]/8bs4[8:1],,,,
{8}2,2h[8:5],
{8}4-7[8:1],,4-1[8:1],,
{8}4,2b-6[8:1],,2b,7h[8:4],,
{8}5-2[8:1],,5b-8[8:1],7b,
{16},6b,,,
{24}6,7,8,1,2,3,
{24}4/5,6,7,8,1,2,
{8}5b/3,
{16},4b-8[12:1],
{8},6b-3[12:1],
{16},1b-5[12:1],,,
{16}4b-7[12:1],,,
{16}2b-6[12:1],,,1b,,,,
{16}8,7,
{8}6/4,6/4,
{8}5/3,5/3,
{8}4/2,4/2,
{8}1/8,
{16}1,2,
{8}3/5,3/5,
{8}4/6,4/6,
{8}5/7,5/7,
{16}8,7,8,7,
{16}4,5,4,5,
{16}2,1,2,1,
{16}3,4,3,4,
{24}2,1,2,1,2,1,
{24}3,8,3,8,3,8,
{24}2,1,8,7,6,5,
{24}4/1,8,7,6,5,4,
{8}3/1b,,
{12}1,,1,
{16}8,1,8,1,7,2,7,2,
{24}6,3,6,4,5,4,
{24}5-8-6-1[8:3]*-2-4-1[8:3],4,5,4,5,4,
{4}5,,
{16}8b/2b-5[8:1],,
{16}3,4,2,,
{16}7,8,6,,
{16}4/5,,
{16}3,1,2,4,3,5,4,6,5,7,8,6,
{32}1,2,3,4,5,6,7,8,
{8}1-3[8:1]/5b,,
{16}1-6[8:1],,8,8,
{16}1-3[8:1],,4,4,
{16}1-6[8:1],,8,8,
{16}1q3[8:3],,4,4,
{8}1,,6,,
{16}7,4,8,5,
{32}1,2,3,4,5,6,7,8,
{8}1/2,1/2,
{8}8bqq3[4:2]/3b,,
{8}1h[8:1],,2h[8:1],,
{8}4bqq7[4:2],,
{8}5h[8:1],,6h[8:1],,
{8}8h[4:1],,
{16}1,2,3,4,
{16}5/6,7,8,1,
{16}2/3,4,5,6,7,8,1,2,
{8}3/6b,3h[12:1]/6b,
{12},7h[12:1]/5h[12:1],,1h[12:1]/8h[12:1],,2h[12:1]/4h[12:1],,5/4,,
{16}1b/7b-4[8:1],,
{16}6,5,7,,
{16}2,1,3,,
{16}5/4,,
{16}6,8,7,5,6,4,5,3,4,2,1,3,
{32}8,7,6,5,4,3,2,1,
{8}8-6[8:1]/4b,,
{16}8-3[8:1],,1,1,
{16}8-6[8:1],,5,5,
{16}8,,1,1,
{16}8h[8:1],,
{24}1,2,3,
{12}4/6b-8[8:1],5,5,
{12}6/2b-4[8:1],1,1,
{12}7b-3[8:1]/2,6,6,
{12}1b-5[8:1]/7,2,2,
{8}1/8b,8,
{8}7/4,7,
{8}6/3,6,
{16}4,5,4,6,
{8}3,3,4/2,2,
{16}8,1,8,1,7,2,6,3,
{16}5,4,6,4,7,3,8,2,
{16}1,3,4,2,5,1,6,8,
{32}7b,6,5,4,3,2,1,8,
{32}7,6,5,4,3,2,1,8,
{32}7/3b,4,5,6,7,8,1,2,
{32}3,4,5,6,7,8,1,2,
{8}3bs7[4:2]/6bz2[4:2],3b/6b,,,,,
{4},
{8}1b>8[4:2]/8bq4[4:1],7b/2b,,,,,
{4},
{8}6b>7[4:2]/3bp7[4:1],5b/4b,,,,,
{4},
{8}5b<4[4:2]/4bq8[4:1],6b/3b,,,,,
{4},
{8}5/4,5/4,
{8}6/5,6/5,
{8}7/6,7/6,
{8}7/8,
{24}8/1,2,3,
{12}4/6,6,6,
{12}4,4,4,
{12}2,2,2,
{12}8,8,8,
{8}5b,5h[8:8],
{8}4,,6,,3,,
{24}7,8,1,2,3,4,
{24}5/7,8,1,2,3,4,
{24}5/1,2,3,4,5,6,
{24}7/2,3,4,5,6,7,
{8}8>3[8:1]/4b,,
{8}7/8,,
{12}6/4-6[8:1],,7,
{8},8-4[8:1],1,8,2h[4:2],,3-6[8:1],,3,,
{8}7/8,7/8,
{8}6/1,2-7[8:1],5h[8:1],2,
{16}5,4,,1,
{8}2h[4:1],,
{16}5,,
{16}5h[16:1]/4h[16:1],,,
{16}6h[16:1]/5h[16:1],,,
{16}7h[16:1]/6h[16:1],,
{8}8h[16:1]/1h[16:1],,,
{8}7b-3[8:1],7,
{8}8-4[8:1],8,
{8}1-5[8:1],1,
{8}2-6[8:1],2,
{8}4-8[8:1],4,
{8}5,5h[4:1],
{8}6h[4:1],,
{16}1b>4[8:1],8,2,7,1,,,,
{16}8b<5[8:1],1,7,2,8,,,,
{16}4,5,4,5,3,6,3,6,
{24}2,1,8,7/3,
{24}2,1,8,7,6,
{24}5/3,2,1,
{4}8b>6[4:4]*pp6[4:4],,,,,,
{4}8h[4:1]/7h[4:1],,
{4}6qq3[4:4]*<3[4:4]/1,,,,,,
{4}3h[4:1]/4h[4:1],,
{4}8/2q5<4[4:5]*-7[4:1],,,,5<8qq3[4:3],,,,
{4}1p5[4:1]*q5[4:1],,,
{4}6/4,
{4}5q8[4:2]*>8[4:2],,,,
{8}7b/8b,7/8,
{16}6/1,5,4/2,,
{8}1/2,1/2,
{16}3/8,4,5/7,,
{8}5/6,5/6,
{16}7/4,8,1/3,,
{24}1/2,8/3,7/4,6/5,,,
{24}7/8,6/1,5/2,4/3,,,
{8}3b/4b,3/4,
{16}2/5,1,8/6,,
{8}6/5,6/5,
{16}7/4,8,1/3,,
{24}2/1,8/3,7/4,6/5,,,
{16}4/5,,
{24},6,5,6,,3,4,3,,5,4,5,4,,,
{12}6b<1[8:1],5,5,
{12}6-2[8:1],4,4,
{12}6,3,3,8h[4:1],,,
{12}3b>8[8:1],4,4,
{12}3-7[8:1],5,5,
{8}3,,
{8}1,,
{16}7,5,6,
{16}2,4,3,
{16}7,4,6,
{16}2,5,3,
{16}8,5,6,1,
{32}8b,7,6,5,4,3,2,1,
{32}8,7,6,5,4,3,2,1,
{32}8/4b,5,6,7,8,1,2,3,
{32}4,5,6,7,8,1,2,3,
{4}4/8bw4[4:4],,,,,,
{24}4,3,2,1,8,7,6,5,4,
{24}3/5,2/6,1/7,
{4}8b-4[23#73:1],,
{16}8,8,8,8,8,8,8,8,
{16}8,8,8,8,8,8,8,8,
{16}8,8,8,8,8,8,8,8,
{4}8b,,,,,,,,E
