&title=On And On!!
&artist=ETIA.
&first=-0.708
&des=ナナミ
&lv_5=14
&inote_5=(170)
{1},
{4}6hx[8:1],6h[8:1],6h[8:1],6h[8:1],6h[8:1]/E1,7h[8:1]/E2,8h[8:1]/E3,1h[8:1],
{4}2h[8:1]/E6,3h[8:1]/E7,4h[8:1]/E8,4h[8:1],4h[8:1]/8-6[8:1],4h[8:1]/8-2[8:1],4h[8:1]/8<6[8:1],4h[8:1]/8x,
{4}3hx[8:1],3h[8:1],3h[8:1],3h[8:1],3h[8:1]/E1,2h[8:1]/E8,1h[8:1]/E7,8h[8:1],
{16}1,2,3,4,8,7,6,5,
{32}1,2,3,4,5,6,7,8,1,2,3,4,5,6,7,8,
{4}1s5b[8:4],,,
{16}1,8,7,6,
{8}5hb[8:4]/1b,,3,3,3,3,35,26,1-6[8:1],7-5[8:1],1,7x-3[8:1],,7x-5[8:1]/3x-1[8:1],,3bx<1[8:3]/7bx,,,
{8}2h[96:1],2h[96:1],2h[96:1],2-6[8:1],8x,2x,E1,B8,B7,4,3,2h[8:2],
{16}1,8,7,6,1hb[8:4]/5b,,,,
{8}7,7,7,7,71,62,35,5-7[8:1]/3-5[8:1],,3x/5x-1[8:1],,5x,,
{8}2h[8:2]/8h[8:2],,,7h[8:2]/5h[8:2],,,3h[8:2]/4h[8:2],,,2>4[8:1],5,6,7-3[8:1],,7hx[8:2],,,8x-4[8:1],,8bx/4bx,,
{16}2,,2,,24,5,6,7,
{8}1h[8:3]/8,,7,7-3[8:1],,7/1-5[8:1],,1,,7h[96:1],7h[96:1],7h[96:1],7h[8:2],5,4,3,28,1,7,6h[8:4]/8,,7,
{16}8,1,2,3,4b/8hb[8:2],,,,
{8}2,2,2,2,
{16}13,8,7,6,
{8}51,1>4[8:1],,1<6[8:1],,1,,
{8}3hx[8:2]/5hx[8:2],,,6h[8:2]/7h[8:2],,,2h[8:2]/1h[8:2],,,4h[8:2]/5,6,7,8>8b[4:1],,,,,
{1}4hbx[8:29],,,
{4},,
{8},C,,,
{8}5,4,6,5,7h[8:2],,C,,5,4,6,5,7h[8:2],,,4h[8:2],,,46,4h[8:2]/6h[8:2],,,35,3<6[8:2]/5,,6<1[8:2],,1>4[8:2],,4,,,
{8}8h[8:1],,8h[8:1],,8h[8:1],,8h[8:1],,8h[8:1]/E2/E3/B2,,8h[8:1],,8h[8:1]/E7/B7/B6,,8h[8:1],,
{8}8h[8:1],4h[8:1],8h[8:1],2h[8:1],8h[8:1],4h[8:1],8h[8:1],6h[8:1],8h[8:1],,8h[8:1]/1h[8:1],,12,2,3,4,5,5,5,5,57,7,7,7,71,1,1,1,13,3,3,3,
{8}3,2,15,6,74,3,26,7b,8w4[8:4],,,,,,,,
{8}35,3,36,3,37,3,38,3,31,1,82,8,71,7,86,6,57,7,74,7,73,7,72,7,71,1,28,2,3b/1b,2,3b/5b,4,
{16}6,,6,,6,,6,8,6,,6,2,6,,6,,4b,,4,,4,,4,2h[16:1],4b,,4,8h[16:1],4,,4,,
{16}4,5,3,6,2,7,1,8,1,1,1,1,1,1,1,1,
{4}1b-3b[8:1],1b-7b[8:1]/8b,1b-5b[8:1]/2b,1b,
{32}4bx,3x/5x,2x/6x,1x/7x,8x,,,,
{16}1bx,7,5,7,3,7,5,7,1,,2/8h[8:2],,,,2,,
{16}8,2,4,2,6,2,4,2,8,,7/1h[8:2],,7,6,5,4,
{16}2,1,3,4,1,8,3,4,1,7,8h[8:2],,,,6,6,
{16}1<6[8:1],,2,,1b>4[8:1]/3b,,,,1b/7b,,,,8b/Cf,,,,
{16}8bx,2,4,2,6,2,4,2,8,,7/1h[8:2],,,,7,,
{16}1,7,5,7,3,7,5,7,1,,2/8h[8:2],,2,3,4,5,
{16}7,8,6,5,8,1,6,5,8,2,1h[8:2],,,,3,3,
{16}8>3[8:1],,7,,8b<5[8:1]/6b,,,,8b/2b,,,,
{32}8b<5[8:1],,,,,,,,84,3,2,,,,,,2>5[8:1],,,,,,,,26,7,8,,,,,,
{32}7<4[8:1],,,,,,,,73,2,1,,,,,,1>4[8:1],,,,,,,,15,6,7,,,,,,
{32}8>3[8:1],,,,,,,,87,6,5,,,,,,1<6[8:1],,,,,,,,12,3,4,,,,,,
{8}5h[16:1],5h[16:1],5h[16:1],5h[16:1],4h[16:1]/6h[16:1],3h[16:1]/7h[16:1],2h[16:1]/8h[16:1],1h[16:1],
{16}1,8,1,7,1,6,1,5,1h[96:1],5,2h[96:1],5,3h[96:1],5,4h[4:1],,,,
{16}6,5,6,,7,,1,,28,,7,,68,,1x/5x,,2,1,38,,7,8,16,,2,1,3,8,4,7,
{8}5x<8[8:1],4x,3x,2x,1hx[96:1],1hx[96:1],
{16}15,26,37,48,
{16}1b/5b,,,,3x,1,2x,8,1x,7,5x,6,4x,5,3,4,2-5[8:1],,5>2[8:1],,2<7[8:1],,
{32}7,6h[32:3],,,,,,,6,5,4h[32:6],,,,,,8qq4[8:3],1,2,3,,,,,,,,,
{8}3,2,1,1-5[8:1],28,1,6,7,2,1h[8:3],,8,8>3b[8:1],7,6/8b,,
{16}6x,8,7x,1,8x,2,4x,3,5x,4,6,5,7-4[8:1],,4<7[8:1],,7>2[8:1],,
{32}2,3h[32:3],,,,,,,3,4,5h[32:6],,,,,,1,8,7,6h[32:5],,,,,,,,,8,1,2,3h[32:5],,,,,,,,,4,5,6,7h[32:5],,,,,,,,,
{16}2,1,,3,4,,56,,7,,8h[8:2],,,,,,1s5b[8:1]/8z4b[8:1],,,,1x/8x,,,,
{16}3h[16:1],,3h[16:1],,1/3h[16:1],8,7,6,
{8}2-7[8:1],7>2[8:1],2>5[8:1],
{32}5,6h[32:3],,,,,,,6,7,8h[32:6],,,,,,4pp6pp8[8:3],3,2,1h[32:5],,,,,,,,,
{8}1h[96:1],2h[96:1],3h[8:2],7,6,5,4<7[8:1],3,2,1-6[8:1],,12,3,4,
{8}57,6,24,3,68,7,13,2,7p3[8:1],7,8-4[8:1],8,1-5[8:1],1,2,2,
{16}3,4,2,5,1,6,8,7,5,6,4,7,3,8,2,1,3,,,4,5,,1<6[8:1]/7,,,,2b,,3b,,4b,,
{8}8/5h[8:1],8,8/3h[8:1],8,8/7h[8:1],8,8/1h[8:1],8,8/E4/D4/A4,8,8/E6/B6/B5,8,8-4[8:1]/A2/E2/D2,8,8/C,,
{16}3,5,3,5,2,6,2,6,
{24}1,7,1,7,1,7,
{32}8x,8x,8x,8x,8x,8x,8x,8x,8x<6-2[8:2],,,,,,,,2x>4-8b[8:2],,,,,,,,
