&title=Now or Never
&artist=CHEMISTRY&m-flo
&first=0
&des=不安ですの不可思議な漫遊씨발
&lv_5=14
&inote_5=(120)
{1},
{4},,,{16},3,4,5,6bqq3[16:9],,,,,,,,,,,,,2,1,8,7pp2[16:9],,,,,,,,,,,,,,
,,18,2z6[16:3],2,6,6,,,,,8z4[16:4],8,4z8[160#12:3],4,,,,,,,,{4}17,2<7[8:1]/6q3[8:1],,
4/5h[2:1],6pp1[8:3],,,8h[4:1]/4pp7[8:3],,1pp4[8:3],,8h[2:1],7pp2[8:3],,,
5<5[4:2]/1h[4:3],,,,{16}3b-5[32:3],,2,1,3-8[8:1],,8-3[8:1],,6,5,,5,6,,,,27,,18,,
7-2[8:1]/2-7[8:1],8,1,8,72,,,,36,,,,
7-4[8:1]/4,,56,,4/7-2[8:1],,2-7[8:1],,4,5,,5,4,,36,,
2-7[8:1]/7-2[8:1],,8,1,27,,,,5-8[8:1]/4-1[8:1],,,,54,,,,
6-4[32:3],,7,8,6-1[8:1],,1-6[8:1],,3,4,,4,3,,,,72,,81,,
7-2[8:1]/2-7[8:1],1,8,1,27,,,,63,,,,
2-5[8:1]/5,,43,,5/2-7[8:1],,7-2[8:1],,5,4,,4,5,,{32}6,5,4,3,
{16},,8,,,,7,,,,6,,1h[16:1]/5h[16:1],,1h[16:1]/5h[16:1],,
1b/5b,,2<6[2:1],2h[16:5],,,,,,,1h[16:1],,8h[16:1],,7h[16:1],,
45,,7>3[2:1],7h[16:5],,,,,,,8h[16:1],,1h[16:1],,2h[16:1],,
54,,6-1[8:1],6h[16:3],,,2-5[8:1],3,3,,7-2[8:1],7h[16:3],,,3-6[8:1],4,4,,
8<2[32:9],8h[16:3],,,2,,1,,8h[4:1],,{32}1w5[32:3],2,3,4,5,6,7,8,
{16}1,,,2/8w4[160#8:1],,,8,,,,17,,26,,3,4w8[32:3],5,,,4,,,26,,,,84,,
8-4[8:1]/4-8[8:1],37,26,1-3[32:3]/5-7[32:3],
,,,,,,26,,34,,18,,56,,37,37,37,,6,65,,3,34,,1>4[8:1]/8<5[8:1],,45,,1b/8b,,,,
{8}2h[8:1]/7h[8:1],,
1V72[8:1]/5,,1/5V36[8:1],,1V72[8:1]/5,,1/5V36[8:1],,1h[4:1]/5,,8,27,2b/7b,,
3V14[8:1],,7V58[8:1]/3,,3V14[8:1]/7,,7V58[8:1]/3,,73,,1,5,{16}47,83,,52,
{8}6b/1b,,8V61[8:1],65,2,5-2[16:1],34,1-6[16:1],87,5,
7>1[16:1]/3<5[16:1],26,7<5[16:1]/3>1[16:1],84,73,{16}84,84,{8}2b/6b,,
4V25[8:1],21,6,1-6[16:1],78,{16}5,,3-6[32:3],2,1,8,7-4[32:3]/3-8[32:3],,,,37,,,,
{32}1w5[8:1],2,3,4,5,6,7,8,{8}1b,,
{16}8b/2b,,7>2[8:1],,2,,4,,6,5<8[160#6:1],4,3,5-1[8:1],,3,4,5,,
3<6[8:1],,6,,8,,2,1>4[160#6:1],8,7,1-5[8:1],,7,8,1,,
6,4-2[32:3],,6,5,4,7-3[160#6:1],,1,7-5[32:3],,1,8,7,1-5[160#6:1],,7,1-3[32:3],,7,8,
1,6q2[64:7]*v3[64:7],,,,6b,,,,
84,,2<7[8:1],,7,,5,,3,4>1[160#6:1],5,6,4-8[8:1],,6,5,4,,
6>3[8:1],,3,,1,,7,8<5[160#6:1],1,2,8-4[8:1],,2,1,8,,
3,5-7[32:3],,3,4,5,2-6[160#6:1],,8,2-4[32:3],,8,1,2,8h[8:1],,
1,7,2-6[8:1],6-2[96#32:3],3,,8w4[8:1],,7,,8b,,,,
7h[16:3],,5,5h[16:3],,6,6h[16:3],,8,8h[16:3],,7,7<4[8:1],,4,,
7,,8>3[8:1],6,,4,8,,7<4[8:1],5,,3,7,,1,,
37,,2>5[8:1],4,,6,2,,1<6[8:1],3,,5,1,,3,,
15,,8>3[8:1],4,,6,8,,7,,1<6[8:1],5,,3,1,,
2h[16:3],,4,4h[16:3],,3,3h[16:3],,1,1h[16:3],,2,2,,3h[32:13]/7,,
{32}7,6,5,,,,7,6,5,4h[32:12],,,2,1,8,,,,2,1,8,7,,,26,,,,6h[32:13]/2,,,,
2,3,4,,,,2,3,4,5h[32:12],,,7,8,1,,,,7,8,1,2,,,45,,,,4h[2:1]/5,,,,
{32}3,2,{16}1,,{32}3,2,{16}1,,8h[2:1],,
{32}7,6,{16}5,,{32}7,6,{16}5,,1,,
{16}2b-5[8:1]/7b,,1,8,2-7[8:1],,7-2[8:1],,6,5,,5,6,,,,27,,45,,
6-3[8:1]/3-6[8:1],5,4,5,6/3>6[32:5]*p6[32:5],,,,,,,,
6-1[8:1]/1,,87,,1/6-3[8:1],,3-6[8:1],,1,8,,8,1-4[8:1],,
4-1[384:47],,6pp5[32:9]*pp4[32:9],,8,7,6,,,,,,,,18,18,27,36,
2z6[8:7],,,,,,,,,,,,,,,,4h[8:1],,,,4-1[8:1],4,4,4,8-5[8:1],,,,,,,,
7s3[8:7],,,,1h[8:1],,,,1-4[8:1],1,,1,1,,,,5-8[8:1],,,,1-4[8:1],1,1,1,
5s1[8:1],,1s5[8:1],,7b,,,,,
