&title=FEEL the BEATS
&artist=A-One
&first=0
&des=ナナミ
&lv_5=14
&inote_5=(166)
{1},
{8}3h[8:2]/5h[8:2],,,4h[8:2]/6h[8:2],,,5qq2[8:6]/7qq4[8:6],,,,,,,,,,
{8}2h[8:2]/4h[8:2],,,1h[8:2]/3h[8:2],,,2pp5b[8:6]/8qq5b[8:6],,,,,,,,,,
{16}6,,4,,4h[8:1],,5,,6,6h[8:1],,4,4,,7,,
{16}3,,5,,5h[8:1],,4,,3,3h[8:1],,5,5,,2,,
{16}6,,4,,4h[8:1],,5,,6,6h[8:1],,4,6,3,7,2,8-4[8:1],,,,1,,1h[8:3],,,,,,
{32}B4,C,B8,,,,,,
{16}3x,4,2,2,,6,5,7,5,,8,8,,1,18,,
{8}2h[8:1],4,
{16}3,3h[8:1],,5,,,6,57,,1,1,,
{16}6x,5,7,7,,3,4,2,4,,1,1,,8,18,,
{8}7h[8:1],5,
{16}6,6h[8:1],,4,5,3,5,1,8,2,7bx,,
{16}3x,4,2,2,,6,5,7,5,,8,8,,1,18,,
{8}2h[8:1],4,
{16}3,3h[8:1],,5,,,6,57,,1,1,,
{16}6x,5,7,7,,3,4,2,4,,1,1,,8,18,,
{8}7h[8:1],5,4>5b[8:4]/5,,,,,,
{8}4b,,2-4[8:1],2,5-2[8:1],5,1-5[8:1],1,6-1[8:1],6,4,4,3-1[8:1]/8-4[8:1],,,,
{8}1qq4[8:3],,6,6<3[8:2],,,,,4pp1[8:3],,8,8>6[8:2],,,,,1b,,
{8}7-5[8:1],7,4-7[8:1],4,8-4[8:1],8,3-8[8:1],3,5,5,6-8[8:1]/1-5[8:1],,,,
{8}8pp5[8:3],,3,3>6[8:2],,,,,5qq8[8:3],,1,1,,2,3,48,
{8}1x<6[8:1]/6,,15,5-1[8:1],,4-8[8:1]*-2[8:1]/5,,4<2[8:3],,,,,5,6,7,8,3/7qq4[8:4],,
{8}1,,2,2,,3,4-7[8:1]/5-2[8:1],,45,,1-5[8:1]/8-4[8:1],,18,,
{8}25,3,46,7,38,2-6[8:1],17,2>5[8:1]/6,,2/8-4[8:1],,1-6[8:1]*-4[8:1]/8,,1,,37,
{8}3/7<4[8:1],,1,1h[8:2],,5-2[8:1],36,5/8-4[8:1],,8/5-2[8:1],,5/8w4b[8:1],,8b,,,
{8}2b/6b,1-5[8:1],25,1,7>2[8:1],36,7,
{24}3,4,5,,,,26,5,4,,,,3-8[8:1]/7,4,5,,,,
{8}38,7,5b,,
{8}8-4[8:1]/3,74,8,2<7[8:1],63,2,
{24}6,5,4,,,,73,4,5,,,,6-1[8:1]/2,5,4,,,,
{8}61,2,4b-1[8:1]*-7[8:1],,,,
{8}2>5[8:1]/6,,8,8h[8:2],,
{16}E5,E4,E3,E2,E1,E8,E7,E6,
{8}8hx[8:2],,3,2,1/6<1[8:1],,4x,,5-1[8:1],,8,8,
{24}2b/7b,36,4h[24:4]/5h[24:4],,,,,,,
{32}1bx/8bx,27,36,45,,,,,
{16}3,6,2,7,1,8,2b,,
{8}8-4[8:1]/3,74,8,2<7[8:1],63,2,
{24}6,5,4,,,,73,4,5,,,,6-1[8:1]/2,5,4,,,,
{8}61,2,4b,,
{8}1-5[8:1]/6,25,1,7>2[8:1],36,7,
{24}3,4,5,,,,26,5,4,,,,3-8[8:1]/7,4,5,,,,
{8}38,7,5b-8[8:1]*-2[8:1],,,,
{8}7<4[8:1]/3,,1,1h[8:2],,
{16}E5,E6,E7,E8,E1,E2,E3,E4,
{8}1hx[8:2],,6,7,8/3>8[8:1],,5x,,4-8[8:1],,1,1,
{24}7b/2b,63,5h[24:4]/4h[24:4],,,,,,,
{32}8bx/1bx,72,63,54,,,,,
{16}3,6,2,7,1,8,
{24}E3,B3,B4,,,,B7,B8,B1,,,,E3,B3,B4,,,,B7,B8,B1,,,,E3,B3,B4,,,,B7,B8,B1,,,,E3,E4,E5,E6,E7,E8,E1,E2,E3,E4,,,
{24}B8,B7,B6,,,,B1,B2,B3,,,,B8,B7,B6,,,,B1,B2,B3,,,,B8,B7,B6,,,,B1,B2,B3,,,,E1,E8,E7,E6,E5,E4,E3,E2,E1,E8,,,
{16}3x,,,25,,6,5,7,5,,8,8,,1,18,,
{8}2h[8:1],4,
{16}3,3h[8:1],,5,,,6,57,,1,1,,
{16}6x,5,7,7,,3,4,2,4,,1,1,,8,18,,
{8}7h[8:1],5,5<4b[8:4]/4,,,,,,
{8}5hb[4:8],,,,,,,,
{4}E3,,E5,,E3h[4:7],,,,E5,E6,E7,E8,
{8}1-3[8:1],,5,,5-7[8:1],5,4,4h[8:2],,8h[8:2],,1-5[8:1],,2h[8:2],,,
{16}34,,5,4,6,,73,,2,,1<6[8:1]/8,,2,,1>4[8:1],,,,1-5[8:1],,,,1w5[8:1],,,,1,,,,,,
{16}3,4,,6,5,,34,,1,7,1,7,
{48}1b,28,37,46,5,,,,,,,,
{8}3b/7b,1-5[8:1],25,1,7>2[8:1],36,7,
{24}3x,4,5,,,,2bx/6bx,15,84,,,,3bx-8[8:1]/7bx,84,15,,,,
{8}38,7,5b-1[8:1],,
{8}56,7,8,2<7[8:1],63,2,
{24}6x,5,4,,,,7bx/3bx,84,15,,,,6bx-1[8:1]/2bx,15,84,,,,
{8}61,2,4b-1[8:1]*-7[8:1],,,,
{8}2>5[8:1]/6,,8-4[8:1],7,8,
{16}1,2,3,4,56,7,8,1,
{8}2hx[8:2],,3,2,1/6<1[8:1],,4x,,5-1[8:1],5,8,8,
{24}2b/7b,36,4h[24:4]/5h[24:4],,,,,,,
{32}1bx/8bx,27,36,45,,,,,
{16}3,6,2,7,1,8,2b,,
{8}8-4[8:1],74,8,2<7[8:1],63,2,
{24}6x,5,4,,,,7bx/3bx,84,15,,,,6bx-1[8:1]/2bx,15,84,,,,
{8}61,2,4b-8[8:1],,
{8}43,2,1,7>2[8:1],36,7,
{24}3x,4,5,,,,2bx/6bx,15,84,,,,3bx-8[8:1]/7bx,84,15,,,,
{8}38,7,5b-8[8:1]*-2[8:1],,,,
{8}7<4[8:1]/3,,1-5[8:1],2,1,
{16}8,7,6,5,43,2,1,8,
{8}7hx[8:2],,6,7,8/3>8[8:1],,5x,,4-8[8:1],4,1,1,
{24}7b/2b,63,5h[24:4]/4h[24:4],,,,,,,
{32}8bx/1bx,72,63,54,,,,,
{16}3,6,2,7,1,8,
{32}1bx/7bxp6[4:5],2bq3b[4:5]/6b,3b/5b,4b,,,,,
{1},
{4},,C,
{16}3x,4,2,2,,6,5,7,5,,8,8,,1,81,,
{8}2h[8:1],4,
{16}3,3h[8:1],,6,5,6,3,4,2,7,8bx,,
{16}6x,5,7,7,,3,4,2,4,,1,1,,8,81,,
{8}7h[8:1],5,
{16}6,6h[8:1],,4,,,3,42,,18,18,,
{16}3x,4,2,2,,6,5,7,5,,8,8,,1,81,,
{8}2h[8:1],4,45,
{16}3,4,,7,5,,4b/8b,,2b/6b,,
