&title=ニニ
&artist=テヅカ x Qayo
&first=0.065
&des=FPlane
&lv_5=13+
&inote_5=(174)
{1}
,
{4}
3h[4:3]/6b,,B4/E5/B5,,5h[4:3],,B3/E4,,
3h[4:3],,B4/E5/B5,
{8}
,,6h[4:3],,5,4,3-5[8:1],,,,
7h[4:3],,,6,,,5,,
4h[4:3],,,6,,,7,,
8h[4:3],,,2,,,1s5[4:2],,
,,,6,6,,57,,
4h[4:1]/6h[4:1],,,4h[4:1]/6h[4:1],,,3,24,
2h[4:1]/4h[4:1],,,3h[4:1]/5h[8:1],,6,6,,
5h[4:1]/7h[4:1],,,6h[4:1]/8h[4:1],,,1,28,
{16}
2h[8:1]/8h[8:1],,,3h[8:1]/7h[8:1],,,4/6h[4:1],,
{8}
4,3,2x/5x,,
{16}
47,,6,5,6,,7,,25,,3,4,3,,2,,
56,,7,,34,,2,,56,,7,,18,,2,,
{8}
4h/3h[4:3],4h,5h,5h,6h,6h,7h,7h,
5/6-1[8:1],,4,3V52[16:3],,8,7-3[8:1],,
{1}
7qq8[4:6],
{16}
E2,,,,,,,,,,,,,,,,
{4}
3q5[4:3],,,,E8,,,2/7,2bq5[4:5]/7bp4[4:5],,,,,,,,
4z8[4:2]/5s1[4:2],,,,2v4[8:2]*s6[8:2],,,3-1[8:1]/7-1[8:1],
{16}
,,,,6,5,6,5,7-5[16:2]*-4[8:1],,8,,,,,,
2>6[16:3],,,,6>2[16:3],,,,E2,E1,E8,E7,E6,,,,
2v5[8:1],,,,5>8[16:5],,,,
{12}
7x,7x,7x,7hx[4:1],,,
{16}
8,,6,5,6,,7-4[8:1],,4-8[8:1],,,,,,,,
1,,,,3,4,3,4,2-4[16:2]*-5[8:1],,1,,,,,,
7<3[16:3],,,,3<7[16:3],,,,E8,E1,E2,E3,E4,,,,
7v4[8:1],,,,4<1[16:5],,,,
{12}
2x,2x,2x,2hx[4:1],,,
{16}
1,,3,4,3,,52,,7/1w5[8:1],,,,1b,,,,
37,,,,6,5,6,5,8-4[16:2]*-3[8:1],,1,,,,,,
2>6[16:3],,,,6>2[16:3],,,,2,1,8,7,6,,,,
1-5[8:1],,,,5>8[16:4],,,,
{12}
7x,7x,7x,7hx[8:1],,,
{16}
8,,6,5,7,,8-4[8:1],,4-8[8:1],,,,,,,,
26,,,,3,4,3,4,2-6[16:2],,8,,,,,,
7,5,6,5,8-4[8:1],5,6,5,
{16}
8>5[16:3],,,,8,,,,
7-4[8:1],,,,4<1[16:5],,,,
{12}
2x,2x,2x,
{16}
2hx[4:1],,,,
1,,3,4,2h[8:1],,6,5,7,8,1,2,3,4,5,6,
{4}
7b>6[4:10],,,,,,,,
1h[2:1],,,2,2h[2:1],,,,
3^6[4:3],,7,,8<5[4:3],,4,,3pp8[4:3],,,,
7h[4:1],6h[4:1],5h[4:1],4-1[8:1],
{8}
,,7,7h[4:1],,5,5,6,
6,4,4,5h[4:1],,3,3,24,
24,,6,6h[4:1],,5,5,7,
{16}
7h[8:1],,5,6h[8:1],,4,5h[8:1],,3,,24,,1-5[8:1]/5,,,,
{4}
18,7-4[8:1],78,2-4[8:1],
{8}
2-5[8:1]/1,8,27,6,8/7-4[8:1],1-5[8:1],7,1,
8,8,17,17,26,26,35,35,
4-2[8:1]*-6[8:1],,4-8[8:1],,4,,
{16}
6,5,6,5,
{8}
7-5[8:1],4,7x/3,2,4-8[8:1],1,4x/2,3,
47,
{16}
6,5,6,,3,4,2-6[8:1],,,,8x,,,,
7h[8:1],,3,4,2,,7,5,8h[8:1],,2,1,2,,83,,
47,,6,5,6,,7/1-5[8:1],,3/5-1b[8:1],,,,,,,,
7-5[8:1],,4,,73,,2,,7-4[8:1],,1,,72,,3-5b[8:1],,
2,,6-1b[8:1],,7,,3,,2h[8:1],,6,,3/7v4[8:1],,,,
{8}
1/7qq1[8:4],,2h,2h,
{16}
2h,,2h,,2q5[8:3],,2h,,
{8}
6h[8:2],,,,7b-3b[8:1],5b,1b,,
{8}
2-4[8:1],5,2x/6,7,5-1[8:1],8,5x/7,6,
{16}
37,,2,1,2,,7,8,6-2[8:1],,,,4x,,,,
3h[8:1],,6,5,7,,2,4,1h[8:1],,7,8,7,,16,,
25,,3,4,3,,2-6[8:1]/8,,4/6-2b[8:1],,,,,,,,
3/7-1[8:1],,6,5,7,,3,,6/2-8[8:1],,3,4,2,,6,,
1/7-4[8:1],,6,5,7,,3,,8/2-6[8:1],,3,4,2,,7,,
4/8qq2[4:2],,,,3h,,3h,,3h,,3h,,3h,,3h,,
4h/8b-6[8:1]*-5[8:1],,,,8b^3[8:1]*q4[8:1],,,,8b,,,,
{32}
E8,E1,E2,E3,E4,E5,E6,E7,
{16}
1bx,,
{24}
2,3,4,
{8}
56,7/8qq7[16:4],,28,,1bh[8:1],,
{24}
2,3,4,
{8}
56,7/8q6[16:4],,28,,1bh[8:1],,
{24}
2,3,4,
{8}
56,7/8>6[16:4],,28,,1b,,
{16}
6,5,7,,48,,2^5[8:1]/6v1[8:1],,,,2b/6b,,,,
8b,,
{24}
7,6,5,
{8}
3/4,1-5[8:1]/2,,1/7,,8hb[8:1],1b,
{24}
7,6,5,
{8}
43,28,1-5[8:1],7^4[8:1],1,7,
{8}
1bx,
{24}
2,3,4,56,,,37,,,2b/8b,,,7,6,5,
{8}
34,26,
1p5[8:1]/7^5[8:1],,
7q3[8:1]/1^3[8:1],,17,,
{32}
4x,5x,6x,7x,8x,1x,2x,3x,
{4}
4bw8[4:5],,,,,,,,
6b/2b,6hb[4:2]/2hb[4:1],,,
3b/7b,3b-6[8:1]/7b-4[8:1],,28,
{16}
3/7-1[8:1],,6,5,7,,3,,6/2-8[8:1],,3,4,2,,6,,
5b/7b,,3/1,,2b/4b,,6/8,,1-5[8:1]/5,,3/7-3[8:1],,1,,7,,
1b,,
{24}
1,28,37,
{8}
46,2b-7[8:1]/8b-3[8:1],,2bq6[8:1]/8bp4[8:1],,2b/8b,
,,37,,46,,35,,
3h[1:1]/4,,4,,4,,4,,
5h[4:4],,4,,4,,4,,
4>6[4:5],,,,,,,,,,,,5<2[4:5],,,,,,,,,,,,3>6[4:5],,,,,,,,,,,,
5<1[4:5],,,,4,,,3,,,2z6[4:10],
