&title=Intensely Pity(「OurWrenally」Sampling Masters MEGA Remix)
&artist=Sampling Masters MEGA
&first=0.195
&lv_5=14+
&des_5=WYBXXJ
&inote_5=
(210){4}7h[1:1],,,,{1}2h[1:1],
{2}7<3[2:1],3q8[2:1],
{1}1h[1:1],
{8}6h[1:1],,,5,,,{4}5,
{8}3h[1:1],,,4,,,{4}4,
{8}7h[1:1],,,8,,,{4}8,
{8}2h[8:3],,,1,,,{4}8/3,
{8}2h[1:1],,,,,8,8,8,
7h[1:1],,,,,1,1,1,
2>6[2:1],,,6,{4}6p1[2:1],7,
{1}8h[1:1],
{8}3h[1:1],,,4,,,{4}4,
{8}6h[1:1],,,5,,,{4}5,
{8}1h[1:1],2,2,2,2,2,2,2,
3,4,5,6qq2[8:7]*pp2[8:7],,,,,,,,,,,{4}1b,
8bV27[8:1]/6b-3[8:1],,,7b/3b,
{1}1bV72[8:1]/3b-6[8:1],
{2}2b-5[8:1]/6b-1[8:1],7b-4[8:1]/3b-8[8:1],
2b-5[8:1]/6b-1[8:1],{4}B2/E2,B4/B5,
7bV16[8:1]/5b-2[8:1],,,7b/1b,
{1}2bV83[8:1]/4b-7[8:1],
{2}6b-1[8:1]/4b-1[8:1],3b-8[8:1]/5b-8[8:1],
6b-1[8:1]/4b-1[8:1],{8}5,5,4,4,
{4}8bx-5[8:1],4/8-4[8:1],3/8-3[8:1],8/2,
1x-4[8:1],5/1-5[8:1],6/1-6[8:1],1/7,
5/8h[4:1],{8}2>6[4:1],2,{4}6p1[4:1],7,
8,8,7-5[16:1]/2-4[16:1],7b/2b,
3/2h[8:1],4/1h[8:1],5/2h[8:1],6/1h[8:1],
6/7h[8:1],5/8h[8:1],4/7h[8:1],3/8h[8:1],
{8}2/4,3,7/5,6,4/2,1,5/7,8,
{4}4b/5b,{8}4/5,3/6,{4}4-1[16:1]/5-8[16:1],4b/5b,
{2}2h[1:1],4,
7h[1:1],5,
{8}1h[1:2],2,2,2,2,2,2,2,
3,3,4,4,5,5,{16}4,5,6,7,
{2}8b<5[2:1],1,
1>4[2:1],8,
{8}8h[1:2],7,7,7,7,7,7,7,
6,6,5,5,4,4,{16}5,4,3,2,
{4}1b-5[8:1],7,8-4[8:1],1,
2-5[8:1],8,7-4[8:1],8,
{8}1h[1:2],2,2,2,2,2,2,2,
3,3,4,4,5,5,{16}4,5,6,7,
{8}8,8,1,1,{16}8,1,8,1,8p1[4:3],1,8,1,
{1}8bh[4:3],
{8}2b/6b,{16}4,5,{8}4,3,{4}6/2v4p8[4:1],{8}7,7,
6h[4:1],5,3h[4:1],4,7h[4:1],6,2h[4:1],3,
{4}6,4-2-6-8[8:3]/5-7-3-1[8:3],{2}4/5,
{8}6/5,7,3/4,2,4/5,6,4s8[2:1]/5z1[2:1],3,
{4}4b/5b,,,3/6,
7-5[8:1],{8}7-1[8:1],4,7-5[8:1],3,7,4,
2,3,4,5,6,7,8z4[4:1],1,
{2}2/8b,{6}2/4,3/5,4/6,
{2}7v1[8:1]/5-1[8:1],6-1[8:1]/4-1[8:1],
{4}2-5-1-6[8:3],{8}6,6<3[4:1],,,{4}5b,
{2}2v8[8:1]/4-8[8:1],3-8[8:1]/5-8[8:1],
{4}7-4-8-3[8:3],{8}3,3>6[4:1],,,{4}4b,
{8}5/4,3b,5/4,6b,5/4,3b,5/4,6b,
5/3,2b,4/6,7b,5/3,2b,4/6,7b,
5b/2b,1b,4b/7b,8b,5b/2b,1b,4b/7b,8b,
3b/5b,{16}4,4,{8}4,3/5,{4}2-5[8:1]/6-1[8:1],2b/6b,
{8}8b-6[8:1],1,8b-4[8:1],2,8,3,6b,6,
1-3[8:1],8,1-5[8:1],7,1,6,3b,3,
8b-4[8:1],1,8b,2,5-1[8:1],3,5<7[8:1],3,
5-1[8:1],2,5<7[8:1],3,5-1[8:1],4,{4}5b,
{8}2-8[8:1],7,2-5[8:1],6,2,7,3b,3,
7-1[8:1],2,7-4[8:1],3,7,2,6b,6,
1b-5[8:1],8,1b,7,4>2[8:1],6,4-8[8:1],7,
4>2[8:1],6,4-8[8:1],5,{4}4xw8b[8:1],4b,
2b-5[8:1]/6b-1[8:1],6b/2b,{8}4-8[8:1],8,4b,7,
1-6[8:1],8,1,2,5-8[8:1],7,5b,4,
{4}1b<6[8:1]*>4[8:1],1b-5[8:1],{8}1>3[8:1],8,1-5[8:1],7,
1>3[8:1],6,1,7,{12}1,3,2,8,6,7,
{8}1b>4[8:1],5,1-5[8:1],6,1,7,2b,2,
8<5[8:1],4,8-4[8:1],3,8,2,6b,6,
3b-8[8:1],4,3b,5,1-5[8:1],6,1>3[8:1],7,
1-5[8:1],8,1>3[8:1],7,{4}1-5b[8:1],1b,
{8}6/8-4[8:1],7,{4}2/8b,{8}3/1-5[8:1],2,{4}7/1b,
{8}2/4-8[8:1],3,{4}6/4b,{8}7/5-1[8:1],6,{4}3/5b,
{8}2b-5[16:1],1-6[16:1],2x,1,5x-3[16:1],6-2[16:1],5x,6,
3x-7[16:1],2-8[16:1],3x,2,7<4[16:1],8-5[16:1],7,8,
{4}4-8[8:1],6/4b,{8}7/5-1[8:1],6,{4}3/5b,
{8}6/8-4[8:1],7,{4}2/8b,{8}3/1-5[8:1],2,{4}7/1b,
{8}6b-1[16:1],5-2[16:1],6x,5,1x-7[16:1],2-6[16:1],1x,2,
7x-3[16:1],6-4[16:1],7x,6,{4}3w7b[16:1],3b,
{64}E1/E5/Cfh[2:3],B8,B4,B7,B3,B6,{32}B2,{1},{4},{16},,{64}B6/B2,
B3,B7,B4,B8,E5,{32}E1,,,,,,,,,,,,,{8}2b/5b,
{16}3,4,{8}3,2,7b/4b,{16}6,5,{8}6,7,
3b/6b,{16}4,5,{8}4V26[4:1],3,{4}6b-1b[8:1],8b,
5b/3b,{8}5/4b-1[8:1],4/5,4b/6,6,{16}6-1[8:1],5,7,5,
{4}6b-4[8:1],{8}3/6,3b-8[8:1],,7/3,{4}7b,
{8}7b/4b,{16}6,5,{8}6,7,2b/5b,{16}3,4,{8}3,2,
{12}6b,5b,6b,4b,5b,4b,{4}6-1[8:1]/5-2[8:1],6b/5b,
7b/4b,{8}4/3,5/2,1b/6b,{16}7,8,{8}7b,{16}2,1,
{8}2b,3b/8b,7b/4b,3b/8b,{4}4b-8[8:1]/7b-5[8:1],4b/7b,
{8}7b/4b,{16}6,5,{8}6b,7,2b/5b,{16}3,4,{8}3b,2,
6b/3b,{16}5,4,{8}5bV73[4:1],6,{4}3b-8b[8:1],1bx,
4b/6b,{8}4x/5b-8[8:1],5/4,5b/3,3,{16}3b-8[8:1],4,2,4,
{4}3b-5[8:1],{8}6/3b,6b-1[8:1],2b,3/6x,{4}4b,
{8}2b/5b,{16}3,4,{8}3b,2,7b/4b,{16}6,5,{8}6b,7,
{12}3b,4b,3b,5b,4b,5b,{4}3-8[8:1]/4-7[8:1],3b/4b,
2b/5b,{8}5b/6b,4/7,8b/3b,{16}2,1,{8}2b,{16}7,8,
{8}7b,6b/1b,2b/5b,6b/1b,{2}2bV83[8:1]/5bv3[8:1],
{4}8b/2b,{8}7b/4b,8b/3b,{2}4bv2[8:1]/7bV52[8:1],
8bw4[8:1],1bw5[8:1],
7b-4[8:1]/8b-3[8:1],6b-1[8:1]/5b-2[8:1],
{4}7b-1[8:1],7b-2[8:1],7b-3[8:1],7b-4[8:1],
7b-5[8:1],7bw3b[8:1],{2}7b,
{8}1-5[8:1],8-6[8:1],1-3[8:1],8-4[8:1],1-5[8:1],8-6[8:1],1>3[8:1],8q4[8:1],
1p5[8:1],8<6[8:1],1,8,2,2,{16}6b,7,8,1,
2,3,4,5,6,7,8,1,2,3,4,5,{24}1,8,7,6,5,4,
3,2,1,8,7,6,5,4,3,2,1,8,{32}5,6,7,8,1,2,3,4,5,6,7,8,1,2,3,4,
{1}5bw1b[8:1],
{8},,,,,2/6,3/7,4/8,
{4}5-2b[8:1]/1-6b[8:1],1>8[1:1],,,,,{2}6h[2:1],
{4}C,C,{2}C,
{4}C,C,{8}C,7/3,6/2,5/1,
{4}4-7b[8:1]/8-3b[8:1],4b/8b,,,1b,
1b,{8}1b,1b,{16}6b,5b,6b,5b,
{8}8b-4[8:1],1,8b,7,5-1[8:1],3,5b,6,
8-4[8:1],1,8,7,5-1[8:1],3,5b,6,
5x/8b-4[8:1],4,3/8b,2,4x/1-5[8:1],5,6/1,7,
8<5[8:1],4>1[8:1],8-4-8[4:1],4,8>6[4:1],2h[8:1],,,1b-5[8:1],
8,1b,2,4-8[8:1],6,4b,3,
1-5[8:1],8,1,2,4-8[8:1],6,4b,3,
1b/5x-1[8:1],2,3b,4,5/1x>4[8:1],6,7,8,
1-4[8:1],6-1[8:1],1,6,{4}5b-8[8:1]*-2[8:1],5b,
{8}4bV63[8:1],1,4b,8,7bV16[8:1],4b,7,3b,
2-5[8:1],4b-8[8:1],2,4b,3-6[8:1],7b-2[8:1],3b,7b,
{4}5b-2[8:1]*-8[8:1],5b,{8}1b-6[8:1],7b,1,5b,
4-8[8:1],7,4b,6b,{12}1b/5b,2bx/6bx,3bx/7bx,4bx/8bx,3bx/7bx,2bx/6bx,
{8}1bx/5bx-1[8:1],3,5b,6,8b-3[8:1],1b,8,7b,
5-1[8:1],3b,5,6b,8-3[8:1],1b,8b,7b,
{4}4b<7[8:1]*>1[8:1],4b-8[8:1],{8}4b>2[8:1],6b,4-8[8:1],5b,
4>2[8:1],6b,4-8[8:1],7b,{4}4bw8b[16:1],4b,
{8}6b/5b,4b/7b,3b/8b,4b/7b,{4}3b-1[8:1]/8b-4[8:1],3b/8b,
{48}1bx/8bx,7b/2bz6[48:275],6b/3b,5b/4b,
E
