&title=Watch me!
&artist=YOASOBI
&first=1.1
&des=小white君
&lv_5=13
&inote_5=(128)
{16}3,,,,3,,,5,4,,6,,6,,5,,7,,8,,1,,2,,,,5,,4,,6,,
{16}6,,,,6,,,,4,,3,,3,,5,,2,,1,,8,,7,,,,4,,5,,3,,
{8}2-5[8:1]/6,,,7,8,1,2,3,5,3,8,7,,3h[4:1],E1,B2,,6h[4:1],E1,B7,,1/8,
{8}2b-6[8:1]/7b-4[8:1],,2-4[8:1]/7,,2-5-7[6:1],5,2,,
{16},6,8,7,1,8,,2,,3,1,2,8,1,,7,,7,5,6,
{8}4-2[8:1],3,5p4[3:1]/4,6,5,3h[16:1],,
{16}2,,5,6,7,8,,1,,2/8,,4,6,,2b-4v5-7[8:5]/7b-5v4-2[8:5],,,,,,,,,,,,,,,,1bx/8bx,,,,
{16}2/7,,3,4,2,5,,4,5,,4,,5,,6,,7/4,,6,5,7,,7,8,,,1-4[8:1]/6,,,,1,,8,,7,7,,6,,4h[16:3],,,5,,3,,2,,
{16}1-4[8:1],,8,,7-4[8:1]/1,,8h[16:1],,1/7,,8,,7,,1,,2-5[8:1],,3,,2/8-5[8:1],,7h[16:1],,2/8,,3,,4,,5,,
{16}6h[16:2],,5,,7-4[8:1],7,,1,7,,2,,3,,4,,5/6,,3,4,,6,5,,A3,A2,A1,A8,A7,A6,
(256)
{8}1bxw5b[3:1],,E8/E1/E2/A8/A1/D1f,,,,4x,,4x,,
{8}6-1b[6:1],6,,2-5b[6:1],2,,6,,7,8,6,1,5,,5h[2:1],,E3,,E2,B1,,,B3,,
{8}7,8,7-5-8b[3:1],,7,,,,2,1,2-5v2b[3:1],1,2,,,,
(128)
{16}8x,1x,8x,1x,,2/7,,3/6,,4/5,4/5,,3/6-8>1[8:1],,5,4,6-4>3[8:1],,5,,6-1[8:1]/2v5[8:1],,1,,2,,,,
{8}8-4[8:1]/4,7,1q5[8:1]/8,2,1>4[8:1]/8<5[8:1],7,1/8,,
{16}5,6,7,8,
{8}1/2,3,4/5,6,7/8,1,2/8,3/7,6/4>8[5:1],
{24}7,6,5,
{8}4,,4b,2b/5b,1b/7b-4[8:1],5b/6b,1v6[8:1]/7,2,1/8-4[9:1],7,1x/8,
{16},2x,,5,3x,6,4,7h[8:1],,5,,4,6,3,5,2,,4,,5,6,7,8/2-6[8:1],,3,,2/8-5[8:1],,7,,8/1,,,2,,,3/7,,
{16}6,5,7,4h[8:1],,5,6,7,1,2,3,4,6,7,8,1,
{8}2<6[4:1],,5<2[4:1],5,3,,4,3,2/7,6,5/4,3,1/2,3/8,4/7-4[8:1],5/6,7/1>4[8:1],2,1/8,7,
{16}5/6,,,4/5-8q5[3:1],,,3h[2:1],,,,,,,,,,
{8}2,1,8bx,7bx,
(256)
{8}6b-8b[6:1],,4/E7/B6/A6f,,3-1b[6:1],3,5,,6b-8b[6:1],,4,,3-1b[6:1],3,5,,6,6,,5/7,,4,6,3,5,2,,1/3,,4/8,4/8,,
{8}7b-5b[6:1],,1,,2-4b[6:1],2,8,,7b-5b[6:1],,1,,2-4b[6:1],2,8,,
{8}7,6,5,4,8,1,2,3,1,8,7,6,2,3,4,5,
{4}7,7-4b[5:1],3,3-8b[5:1],5,6,7,7-2b[5:1],3,3v6b[5:1],8,8,1/7,2/6,3/5,2/7,3v8b[5:1]/6,,5<8b[5:1]/4,,1/2,
{8}3,4,,6,5,,2,1,2,1,,3,4,,6/5,,7,,8/1,,2,,3,4,2,2,,5/6,,3/4,,1/8,,2/7,,4b/5b,4b-1b[5:1]/5b-8b[5:1],,
{4},,,,
{8}6x,,,6x,,,6x,,7,,4,,4,,4,,3/5,,7,8,,2,1,,4/5,,,,3/7,,,,2-7b[5:1]/6-3b[5:1],,A2/A6,
