&title=やっぱり雨は降るんだね
&artist=ツユ
&first=0
&des=FaNM0U
&lv_5=13
&des_5=FaNM0U
&inote_5=
(130){4},,,,,,5/4v5[8:3],
6,
6,{8}6h[8:1],{16}5p4[8:5],6,{4}4,3,
3,3q5[2:1],2/3x,2,
2,{8}2h[8:1],{16}1pp4[8:5],2,{4}8,8,
8,8q1[8:5],1,2,
3,{8}4h[8:1],{16}5,4,{4}6qq3[2:1],8,
8,{8}8,1,7-4[8:1],2,7,3,
{16}5-8[8:1]*-2[8:1],4,{8}6,{4}5,1bx/Cf/B5/B4,{8}4/2,2/4h[4:1],
{32},,,,E5,E4,{16}E3,,,,,{8}6h[8:1]/5-3[12:1],4,7,{16}6,6h[16:3],
{8}5-2[8:1],4,7,{16}6,6,{8}5-1[8:1],4,6,6h[8:1],
{16}8,7,{8}8,{4}6/1,{8}3h[8:1]/4<6[12:1],5,2,{16}3,3h[16:3],
{8}4q8[8:1],5,2,{16}3,3,{8}1-4[8:1],3,1,2,
5v8[8:1]/3v8[8:1],5/3,,,7/1-5[8:1],8,1/7,{16}6,6,
{8}4-7[8:1],5,4/2,1h[8:1],{16}8,1,{8}8h[8:1],{16}2,1,{8}2h[8:1],
{16}8,1,8,2,{4}1<6[8:1]*>4[8:1],1x,{8}7/5,5h[4:1]/7-5[12:1],
,7,{16}3,4,{8}3-5-2[4:1],5h[8:1],3,,6-1-5[4:1],
1h[8:1],6,,4V62[4:1],6h[8:1],4,,8v5<7[4:1]*v3>1[4:1],
,,,,8x-4[8:1],,,3,
{16}3q5[4:1],,,4,{4}3,6q3[8:1],5<4[4:1],
{8}8h[8:3],{16},,,,5,5,{8}7-5[12:1],5,7,4h[8:1],
5-8[8:1],4,5,3h[8:1],1-4[8:1],2,1,3h[8:1],
4-8[8:1],3,4,2,8x/1x-5[8:1],,,6,
{16}6pp4[4:1],,,6,{4}4x,2<7[8:1],6q3[8:1],
{8}4<8q3[2:1],4,{4}8xh[8:5],{8},,,,4x,
6x,5x,4x,{16}6,5,{8}7,{16}4-8[8:1],5,{8}3,
{2}4bx/2bh[8:3],{4}1b-3[12:1]`8b-4[8:1],1/8-6[12:1],
{8}8/5q7[4:1],4,3,2,{4}1<5-2[4:1],{8}5,4x-8[8:1],
,,1x,{16}8,8,2,1,2,8,1-4[8:1]*>4[8:1],7,{8}8,
{4}1x-6[8:1]*<6[8:1],1x,{8}5/7h[8:1],5,6/8h[8:1],6,
7/1h[8:1],7,2/8w4[8:1],8,8bxpp3[8:3],,,7,
{4}7p4[4:1],4>1[8:1],5-1[8:1],5/8<5[8:1],
{8}4/8,4,4-8[8:1],5,{4}6b/4,{8}6-1[8:1],5,
4/6,{16}3,3,8-4qq3[8:3]*-4pp5[8:3],1,{8}7,{2}Cf/B7/B1,
{8}7/4,{16}6-3[8:1],5,{8}7,8,{64}E8,B7,,,,,,,,,,,,,,,E2,B2,,,,,,,,,,,,,,,B7,
B6,,,,,,,,,,,,,,,B2,B3,,,,,,,,,,,,,,,B6,E6,,,,,,,,,,,,,,,B3,E4,,,,,,,,,,,,,,,E6,
A5,,,,,,,,,,,,,,,E4,A4,,,,,,,,,,,,,,,A8,D8,,,,,,,,,,,,,,,A1,D2,,,,,,,,,,,,,,,A7,
D7,,,,,,,,,,,,,,,A2,D3,,,,,,,,,,,,,,,A6,D6,,,,,,,,,,,,,,,A3,D4,,,,,,,,,,,,,,,A5,
D5,,,,,,,,,,,,,,,A4,D5,,,,,,,,,,,,,,,A8,E8,{32}B7,{64},,,,,,,,,,,,A1,E2,{32}B2,{64},,,,,,,,,,,,E8,
B7,{32}B6,{64},,,,,,,,,,,,E2,B2,{32}B3,{64},,,,,,,,,,,,B7,B6,{32}E6,{64},,,,,,,,,,,,B2,B3,{32}E4,{64},,,,,,,,,,,,B6,
E6,{32}A5,{64},,,,,,,,,,,,B3,E4,{32}A4,,,,,,,{8}7/5,5/7,,,4/2,
2/4,,,{4}6/4,5/3p2[8:3],
{8},5,6,7,{2}8xp3p6p1p4p7p2p5[4:13]`1xp4p7p2p5p8p3p6[4:13],
{4},,,,,,,,,,,,,,4/6qq1[2:1],
3,
2,2,7/1qq4[2:1],6,
5,5,{8}7/5,{16}6,4,5-1[8:1],3,6,4,
{2}5b/E4f/B4/B3,{4}8b/1b<6[8:1],{16}2/1,,,3,
{8}4>1[8:1],5,6,7,8>4-7[4:1],2,4,5-1[8:1],
,,6h[8:1],{16}8,8,7,1,8,2,1-5[8:1],3,,3,
{8}1,2,3-8[8:1],4-7[8:1],3,4,1,1h[8:1],
{16}8,1,8,1,{8}8-3-6-1[4:1],2,3,4,5h[4:1],8,
{16}7-4[8:1],,,1,{8}7,{16}8,8,{8}4-7[8:1]*v2[8:1],{16}5,3,{4}4,
{8}8xh[16:1]/Ch[2:1],7xh[16:1],6xh[16:1],7xh[16:1],{4}8x-4[8:1],{8}8/2,3,
5/4-7[8:1],{16}5,3,{8}4-8[8:1]*>1[8:1],2,{4}4,{8}1/7,8/2,
{16}1,8,3,6,2,7,4,5,{4}1b-5b[8:1]*-6[8:1],1b,
{8}5/7-2b[8:1],8,7/3-6[8:1],4,{4}3/8<5-1b[4:1],{8}5,4-8[8:1],
{16},,,,7,7,1,1,8,1,7,2,{8}8-4[8:1],{16}4,4,
{8}8<5[8:1]*>3[8:1],3,{4}8,{8}6h[16:1]/4h[16:1],7h[16:1]/5h[16:1],8h[16:1]/4h[16:1],1qq6[4:1]/5qq2[4:1],
,,,,{4}8b-4[8:1]/4b-2[12:1],4/8,
1-5[8:1]/5-7[12:1],5/1,5-1[8:1]/4-2[12:1],4-8[8:1]/5-7[12:1],
4/5,{8}1-5[8:1],8/2,{4}1,{8}7-3[8:1],6/8,
7,{16}2,2,4pp3>8[8:3],3,{8}4,{2}3h[8:3],
{16}6,5,7,4,8,1,7,2,{2}8>4z8[8:5],
,6b/2b,
E
