&title=色魔
&artist=Peg
&first=0
&des=白安心
&lv_5=11+/12+
&inote_5=(115)
{1},,
{8}3pp7[2:1]/4h[4:1],,,2h[4:1],,,,,
{8}6qq1[2:1]/5h[4:1],,,7h[4:1],,,,,
{8}2pp6[2:1]/1h[4:1],,,3h[4:1],,,,,
{8}7qq4[2:1]/8h[4:1],,,6h[4:1],,,,,
{16}2b-6[4:1],,5,,6-4[16:3],,7-2[4:1],,,,,,,,,,
{8}3qq8[2:1],,7,7h[4:1],,,,,
{16}8-4[4:1],,5,,4-6[16:3],,3-8[4:1],,,,,,,,,,
{8}6pp2[2:1],,5,5h[8:7],,,,,
{8},3bz7[8:3],4bs8[4:1],,,,,,
{8}2b/6h[16:3],,37,1-4[8:1]/5-8[8:1],,,,,
{8}4h[16:3]/8h[16:3],,37,1-6[8:1]/5-2[8:1],,,,,
{8}3h[16:3]/7h[16:3],,26,8<5[8:1]/4>1[8:1],,,,,
{8}1h[16:3]/5h[16:3],,26,8>3[8:1]/4,,5,6,7h[16:1],
{16}2b,8,3,7,4,6pp4[4:1],5h[8:1],,,,4,,3,,2h[16:1],,
{16}7,1,6,2,5,3qq5[4:1],4h[8:1],,,,5,,6,,7h[16:1],,
{16}1,8,2,7,3,6V48[4:1],4h[8:1],,,,3,,2-5[8:1],,1,,
{8}2-6[8:1],,2-7[4:1],,2,,6,5,
{8}4bw8[8:1],,4,,1pp1[4:1],8,7,6,
{8}5-1[8:1],1,2-6[8:1]*-5[8:1],,2,,7h[4:1],8,
{8}1p5[8:1]*-4[8:1],,1,,4pp4[4:1],3,2,1,
{8}1q5[8:1],5,6qq3[8:3],,67,,,7,
{16}6b/2b,,7,8,4,3,5h[8:1],,,,2>5[8:1],,5,,6h[16:1],,
{16}7h[8:1],,1,8,5,6,4<8[8:1]*>1[8:1],,,,,,,,18,,
{16}3b/7b,,4,5,8,7,1<6[8:1],,,,13,,2,,1h[16:1],,
{16}6,4,1,2,8,5,6V41[8:9]*V83[4:1],,,,,,,,,,
{1},
{8}2<4[8:3]/1h[8:1],,3,4-8[16:3],,,,,
{8}6pp3[2:1]/5h[4:1],,,7h[4:1],,,,,
{8}7>5[8:3]/8h[8:1],,6,5-1[16:3],,,,,
{8}4pp1[2:1]/5h[4:1],,,3h[4:1],,,,,
{32}8h[8:1]/4h[8:1],,,,,,,,62,,,,8<2[16:3]/4h[2:1],1,2,,,,,,,,,,,,,,,,,,
{32}1h[8:1]/5h[8:1],,,,,,,,37,,,,1>7[16:3]/5h[2:1],8,7,,,,,,,,,,,,,,,,,,
{32}6h[8:1]/2h[8:1],,,,,,,,84,,,,6<4[16:3]/2h[2:1],5,4,,,,,,,,,,,,,,,,,,
{32}3h[8:1]/7h[8:1],,,,,,,,15,,,,37,48,5h[16:5]/1h[16:3],,,,,,,,,,1,,,,,,,,
{16}3b/7b,,2h[16:1],1h[16:1],2h[8:1],,1,,38,,2h[16:1],3h[16:1],4h[16:1],5h[16:1],6h[8:1],,
{16},,7h[16:1],8h[16:1],7h[8:1],,8,,16,,7h[16:1],6h[16:1],5h[16:1],4h[16:1],3h[8:1],,
{16},,2h[16:1],1h[16:1],2h[8:1],,1,,38,,2h[16:1],3h[16:1],4h[16:1],5h[16:1],6h[8:1],,
{16},,7h[16:1],8h[16:1],7h[8:1],,8,,16,,7h[16:1],6h[16:1],5h[16:1],4h[16:1],3h[16:1],,
{16}6b/2b,,2,3,4h[8:1],,5,5,8h[16:1],7h[16:1],1h[16:1],6h[16:1],8h[16:1],7,6h[8:1]/1h[8:1],,
{16},,7,6,5h[8:1],,4,4,1h[16:1],2h[16:1],8h[16:1],3h[16:1],1h[16:1],2,3h[8:1]/8h[8:1],,
{16},,2,3,4h[8:1],,5,5,8h[16:1],7h[16:1],1h[16:1],6h[16:1],8h[16:1],7,6h[8:1]/1h[8:1],,
{16},,16,27,3/8-4[8:1],,4w8[8:1],,8,,,,,,,,
{8}5>3[8:1],,,,4>2[8:1],,,,
{8}5>3[8:1],,,,6>4[8:1],5h[8:3],,,
{8}4<6[8:1],,,,5<7[8:1],,,,
{8}4<6[8:1],,,,3<5[8:1],4h[8:3],,,
{8}8b,,2h[8:3],1h[8:3],,,,,
{8}4h[4:1],,6h[8:3],5h[8:3],,,,,
{8}5pp4[4:3]/3qq4[8:9],,,,,,,,
{8},,,,,,6,7,
{8}8bw4[8:1],,8,,5V74[4:1],4,3,2,
{8}1-5[8:1],4,5-1[8:1]*-8[8:1],,5,,3h[4:1],4,
{8}5-2[8:1]*<8[8:1],,5,,8pp1[4:1],7,6,5,
{8}4q1[8:1],2,3<2[8:3],,32,,,7,
{16}2b/6b,,1,8,5,6,4/7h[4:1],,,,4<7[8:1],,3,,2h[16:1]/4,,
{16}1h[8:1],,7,8,4,3,5-1[8:1]/2-6[8:1],,,,,,,,18,,
{16}3b/7b,,6,5,1,2,8-3[8:1]/3,,,,68,,7,,8,8,
{16}1,7,3,5,8,7,1-5[8:1]/6-2[8:1],,,,,,,,4,,
{16}4b/5b,,4,5,4,5,4,,4-8[8:1],,,,4>8[4:3],,,,
{8}4h[8:1],,4h[8:1],,4h[8:1],,4h[8:1],8,
{16}81,,8,1,8,1,8,,8-4[8:1],,,,8<4[4:3],,,,
{8}8h[8:1],,8h[8:1],,8h[8:1],,8,8,
{16}2b/6b,,7>7[4:1],8,4,3,7q3[8:1],,,,8,,1,,2,2,
{16}6h[8:1],,5,1,2,6,5q2[8:1]*p8[8:1],,,,,,,,18,,
{16}3b/7b,,1<1[4:1],8,5,6,1p5[8:1],,,,8,,7,,6,6h[16:4],
{16}7,8,1,2,37,48,1-5[8:1]/5s1[8:1],,,,,,,,,,
