&title=Lionheart [DX]
&artist=Masayoshi Minoshima
&first=0
&des=Dororo
&wholebpm=132
&lv_5=13+
&inote_5=(132)
{16}
,,,,,,,,,,,,,,,,
4-1[8:1],,,,5-8[8:1],,,,6-2[4:1],,,,,,,,
1-4[8:1],,,,8-5[8:1],,,,2-6[4:1],,,,,,,,
5-8[8:1],,,,4-1[8:1],,,,3-7[4:1],,,,,,,,
8-5[8:1],,,,1-4[8:1],,,,7-3[4:1],,,,,,,,
4-1[8:1],,,,6-3[8:1],,,,8-5[8:1],,,,8-3[8:1],,,,
6-1[8:1],,,,4-7[8:1],,,,2-5[8:1],,,,2-7[8:1],,,,
5-8[8:1],,,,3-6[8:1],,,,1-4[8:1],,,,1-6[8:1],,,,
3-8[8:1],,,,5-2[8:1],,,,7-4[8:1],,,,7-2[8:1],,,,
3-7[8:1]*-6[8:1],,,,3-8[8:1],,,,3-7[8:1]*-6[8:1],,,,3-8[8:1],,,,
6-2[8:1]*-3[8:1],,,,6-1[8:1],,,,6-2[8:1]*-3[8:1],,,,6-1[8:1],,,,
4x-8[8:1],,4x-7[8:1],,,,,,5x-2[8:1],,5x-1[8:1],,,,,,
8b-4b[2:1],,,,Chf[2:1],,,,,,,,,,,,
4-1[8:1],,,,6-1[8:1],,,,5-1[8:1],,,,1-5[8:1],,,,
6-1[8:1],,,,4-1[8:1],,,,8x-5[8:1]/4x-7[8:1],,,,,,,,
6-3[8:1],,,,2-5[8:1],,,,8-4[8:1],,,,4-8[8:1],,,,
2-5[8:1],,,,6-3[8:1],,,,6x-2[8:1]/4x-8[8:1],,,,,,,,
5-8[8:1],,,,3-8[8:1],,,,4-8[8:1],,,,8-4[8:1],,,,
3-8[8:1],,,,5-8[8:1],,,,1x-4[8:1]/5x-2[8:1],,,,,,,,
3-6[8:1],,,,7-4[8:1],,,,1-5[8:1],,,,5-1[8:1],,,,
7-4[8:1],,,,3-6[8:1],,,,5x-8[8:1]*-2[8:1],,,,,,,,
7-3[8:1],,,,7-2[8:1]/8-5[8:1],,,,8-4[8:1],,,,8-3[8:1]/1-6[8:1],,,,
1-5[8:1],,,,1-4[8:1]/2-7[8:1],,,,2-6[8:1],,,,,,,,
3-8[8:1],,,,3-6[8:1]/4-7[8:1],,,,4-1[8:1],,,,4-7[8:1]/5-8[8:1],,,,
5-2[8:1],,,,5-8[8:1]/6-1[8:1],,,,6-3[8:1],,,,,,,,
2-6[8:1],,,,2-7[8:1]/1-4[8:1],,,,1-5[8:1],,,,1-6[8:1]/8-3[8:1],,,,
8-4[8:1],,,,8-5[8:1]/7-2[8:1],,,,7-3[8:1],,,,,,,,
6-1[8:1],,,,6-3[8:1]/5-2[8:1],,,,5-8[8:1],,,,5-2[8:1]/4-1[8:1],,,,
4b-8b[2:1],,,,,,,,,,,,E5f,,,,
1-6[8:1],,6-3[8:1],,1-4[8:1],,,,1-6[8:1]*-5[8:1],,,,1-4[8:1],,,,
1-6[8:1],,6-3[8:1],,1-4[8:1],,,,1-6[8:1]*-5[8:1],,,,1-4[8:1],,,,
1-6[8:1],,6-3[8:1],,1-4[8:1],,,,1-6[8:1]*-5[8:1],,,,1-4[8:1],,,,
1-6[8:1],,6-1[8:1],,1-4[8:1],,,,5-8[8:1]*-2[8:1],,,,5b,,,,
8-3[8:1],,3-7[8:1],,8-4[8:1],,,,8-3[8:1]*-5[8:1],,,,8-4[8:1],,,,
8-3[8:1],,3-7[8:1],,8-4[8:1],,,,8-3[8:1]*-5[8:1],,,,8-4[8:1],,,,
8-3[8:1],,3-7[8:1],,8-4[8:1],,,,8-3[8:1]*-5[8:1],,,,8-4[8:1],,,,
8-3[8:1],,3-8[8:1],,8-4[8:1],,,,5-2[8:1]*-1[8:1],,,,5b,,,,
3-6[8:1],,6x-3[8:1],,7-4[8:1],,,,7-2[8:1],,2x-7[8:1],,3-8[8:1],,,,
3-6[8:1],,6x-3[8:1],,7-4[8:1],,,,7-2[8:1],,2x-7[8:1],,3-8[8:1],,,,
3-6[8:1],,6x-3[8:1],,7-4[8:1],,,,7-2[8:1],,2x-7[8:1],,3-8[8:1],,,,
3-6[8:1],,6x-2[8:1],,2x-7[8:1],,7x-3b[8:1],,,,,,,,,,
6-3[8:1],,3x-7[8:1],,2-5[8:1],,,,2-7[8:1],,7x-3[8:1],,6-1[8:1],,,,
6-3[8:1],,3x-7[8:1],,2-5[8:1],,,,2-7[8:1],,7x-3[8:1],,6-1[8:1],,,,
6-3[8:1],,3x-7[8:1],,2-5[8:1],,,,2-7[8:1],,7x-3[8:1],,6-1[8:1],,,,
6-3[8:1],,3x-7[8:1],,7x-2[8:1],,2x-5[8:1],,5x-1b[4:1]*-8[4:1],,,,,,,,
,,,,,,,,,,,,,,,,
,,,,,,,,,,,,,,,,
E
