&title=Colorful Cookie (BEMANI SYMPHONY Arr.)
&artist=Lucky Vacuum × デビン木下 × gaQdan
&first=1.5
&des=もとなり
&lv_5=14
&clock_count=4
&inote_5=(168)
{8}1-4b[84#8:5]/5-8b[84#8:5],,,,,,,,,,,,,,,,
8/Cf/B5/B4,,7/4,3,6/3,,5/2,3,
8,,7/4,3,6/3,,5/2,3,
8,,7/4,3,6/3,,5/2,3,
8,,7/4,3,6/1,2,5/3,4,
7/1,,1/3,,3/5,,5/7,,
B7/E1,,B1/E3,,B3/E5,,E7/B5,,
{16}1,2,3,4,7,6,5,4,2,3,4,5,8,7,6,5,
1,,,,6,,,,7,,B2,C,E2/B3,,,,
{8}6/4,,6/4,,6/4,,6/4,6/4,,6/4,6/4,,6/4,,6/4,,
3/5,,3/5,,3/5,,3/5,3/5,,3/5,,3/5,3/5,3/5,3/5,,
4/7,,4/7,,4/7,,4/7,4/7,,4/7,,4/7,,4/7,4/7,,
2/6,,2/6,,2/6,,2/6,2/6,,2/6,,2/6,2/6,,2/6,,
7/8,,4/5,,1/2,,4/5,6,7/8,6,4/5,3,1/2,3,4/5,C,
1/2,,4/5,,7/8,,4/5,3,1/2,3,4/5,6,7/8,6,4/5,C,
2/3,,4/6,,1/8,,6/7,8,1/3,4,4/5,6,7/1,,2/8,,
1-6[8:1],,3-7[8:1],,5-1[8:1],,7x,7x,,6/8,6/8,,1/5,,2/4,,
Ch[8:16]/3-1-7-5-8-3-5[8:12],,,,,,,,,,,,,,,,
1w5[8:4],,,,,,,2/4,,5/7,,1/8,,4/6,3/7,2/8,
1x>3[8:1],7,1-5[8:1],7,1-3[8:1],7,1-5[8:1],7,1>3b[8:1],7-4b[8:1],1-5[8:1],7,1-3b[8:1],7h[8:2],1,,
{16}6x,5,4,3,6,5,4,3,7,8,1,2,7,8,1,2,7,6,5,4,8,7,6,5,2,3,4,5,1,2,3,4,
{8}7-5[8:1],3,7-1[8:1],3,7-3b[8:1],3,7,2x,5x<8[8:1]/1x>4[8:1],,5p1[8:1]/1p5[8:1],,1/5,,3x/7x,,
{32}2b,,,,8,7,6,5,4b,,,,7,6,5,4,3b,,,,,,,,{8}1/2,3b/8b,,1b/6b,,2b/7b,,4b/5,3/6b,2b/7,
8bx/1bx-5b[8:1],2,1/7-4[8:1],8,7/2-6b[8:1],A1,2/8-5[8:1],A7,8/4-1b[8:1],E3,4/6v1[8:1],7,6/2-5b[8:1],3,2/7,8,
1bx/8bx-4[8:1],,8/2-5b[8:1],1,2/7-3[8:1],A8,7/1-4b[8:1],A2,1/5-8[8:1],E7,5/3v8b[8:1],2,3/7-4[8:1],6,2/7,1,
,E8,6h[8:2],B8,5h[8:2],B1,4h[8:2],E2,3h[8:4],,B5/E5,B6/E6,,E2,C,E6,
,E8,6h[8:2],B8,5h[8:2],B1,4h[8:2],E2,3h[8:4],,B5/E5,B6/E6,,E2,C,E6,
1b/6x,3b/8x,2x/5b,4x/7b,,3bx/6bx,1bx/8bx,,
{4}Ch[8:14]/7,7,8,8,1,1,2,2,
{16}4,5,4,5,3,5,3,5,2,6,2,6,1,7,1,7,4,6,4,6,3,7,3,7,2,8,2,8,1,8,1,8,
{8}2-6[8:1],2,3-7[8:1],3,4-8[8:1],4,5-1[8:1],5,6-2[8:1],6,7-3[8:1],7,8-4[8:1],8,1,1,
2/5,B3,4/7,B6,5/C,,3,2/4,,5/7,,1/8,,4/6,3/7,2/8,
{16},,4,,5,,,,2/4,,,5/7,,,1/5,,,,8,1,7,2,1x/8x,,,,1/2,,,,7/8,,
,,B2,,B8/B5,,,,B6,,E2/E4,,,,B3,,
5/8,,,,B7,,1x/4x,,,2x/6x,,,3x/7x,,,A8f/E1/E8/5x,
,,,,,,2x/3x,,,,5/7,,6/8,,,,
,,1/4,,,,6,4,8,,,4/8,,,2,8,
4,,,,6,,1/4,,,,3,,5/8,,,,
E3,B3,B4,E5,E1,B8,B7,E7,E2,B2,B3,E4,E8,B7,B6,E6,
,,E3,,E5,,E8,,1/3,,,,5/7,,,,
3/6,,,,C,,3/5,,,,4/8,,,,2/6,,
,,B6,,4/E2f,,,,B2,,8/E6f,,,,B7,,
1/E4f,,,,B3,,5/E8f,,,,2/4,,,,6/8,,
,,A6/A7/D7,,1/4,,,,A2/A3/D3,,5/8,,B6/B7,,B2/B3,,
1s5[8:3],,,,6,,5z1b[8:2],,,,E6,,C,,E2,,
{8}5,4,6,3h[8:13],7,,8,,5,,6,,7,,8,,
6-1-7-4b[8:6],,,,,,,,2-5-3-8[8:6],,,,,,,,
{16}Ch[8:32],,,,,,E2,E3,E4,,,,,,,,
A2/E3,,,,,,E2,E1,E8,,,,A1,,,,
E3/B2/B3,,,,,,E4,E3,E5,,,,,,,,
E4/A3/A4/D4,,,,,,,,1,,2,,3,,4,,
3,,,,,,6,5,6,,,,,,3,4,
2,,,3,,,4,,7,,,6,,,5,,
{8}4h[8:4],,,,6h[8:4],,,,
2h[8:4],,,,8h[8:4],,,,
1>4[84#8:5],,5,5,6,,6,,6,7,,6,7,,8,,
8<5[84#8:5],,4,4,3,,3,,3,2,,3,2,,1,,
2h[8:16],,,,8-4-7-2-5b[84#8:3],,,,,,,,,,,,
1-5[84#8:1],,,,7h[8:4],,,,
8-4[84#8:1]*-4[84#8:1],,,,1h[8:4],,,,
7-2[84#8:18],,,,,,,,,,7-2b[84#8:13]/3-6[84#8:13],
