&title=Cogwork Dancers
&artist=Christopher Larkin
&first=0
&des=Glowen
&clock_count=4
&lv_5=13+
&inote_5=(60)
{1},
{4}3-7[16:1]/5-8[16:1],,7-2[16:1]/1-4[16:1],,
{4}8-5[16:1]/6-3[16:1],,4-1[16:1]/3-6[16:1],,
{4}6-1[16:1]/2-5[16:1],,8-3[16:1]/4-7[16:1],,
{4}8-6[16:1]/4-2[16:1],,5-8[16:1]/1-4[16:1],,
{4}3bq3[16:4]/7bq7[16:4],,,7-2[16:1]/2-7[16:1],
{4},2-6[16:1]/7-3[16:1],,5-8[16:1]/4-1[16:1],
{4},1-4[16:1]/8-5[16:1],,4-7[16:1]/5-2[16:1],
{4},7bV15[16:3]/2bV47[16:4],,,
{4}8-5[16:1]/1-4[16:1],,6-3[16:1]/3-6[16:1],,
{4}7-3[16:1]/3-8[16:1],7/3,
(75)
{8}6b-1[16:1],3/5,4/6,2,8-3[16:1],4/7,5/8,{16}6,8,
{8}2-5[16:1],7/1,8/2,6,4-7[16:1],8/3,1/4,{16}2,4,
{8}8b-4[16:1],3-6[16:1]/5,1/8,3,7-3[16:1],2-5[16:1]/4,7/8,2,
{8}6-2[16:1],5/7,1b/6,{16}3,3,{8}8-3[16:1],4/6,78,{16}5,5,
{8}2-7[16:1],6-3[16:1]/4,2/8b-4[16:1],6,8,{16}5-2[16:1],5,5-8[16:1],,7/5,,
{16}5b/3b,,1-6[16:1],1,1-4[16:1],,1/3,,1b/7b,,5-2[16:1],6,7-3[16:1],,58,,
{16}1b/7b,,1,2,3h[8:2],,6,5,4h[8:4],,2,,6,,8,,
{16}3h[8:4],,7,,5,,1,,6h[8:4],,7,,5,,3,,
{16}1-5[16:1],,,,15,,,,
(120)
{8}4b/6b,6-4[16:1],6,6/4,3-1[16:1],3,1/3,8-6[16:1],
{8}8,6/8,5-3[16:1],5,5/3-7[12:1],2-5[12:1],1/3,2b,
{8}8,4-7[12:1],2-6[12:1]/6,1-7[16:1]/4,2-4[16:1],1-5[12:1],2,1,
{8}2h[8:1],4b,6h[8:1],8b,3h[8:1],5b,7h[8:1],1b-6[12:1],
{8}2-5[12:1],1,2-6[12:1],7-3[12:1],2,7-4[12:1],1-5[12:1],7,
{8}1-6[12:1],8-3[12:1],1,8-4[12:1],2-5[12:1],8,2,6b,
{8}8-3[12:1]/4,2/6-1[12:1],4-8[12:1]/8,6-2[12:1],4-7[12:1],6-3[12:1],4,6,
{8}5w1[12:1],2b/8b,5,,2-6[12:1]/8-4[12:1],4/6,2b/8b,,
(240)
{4}5b<8[8:4],5,,,
{8}4,4,4,4,4,4,4>1[8:4]*z8[8:4],4,
{8}4b,,,,,,,,
{8}3/7,3/7,3/7,3/7,3/7,3/7,3/7,3/7,
{8}3b<5[8:1]/7b<5[8:1],,,,6>4[8:1]/2>4[8:1],,,,
{8}7-5[8:1]/2-5[8:1],,,,7-4[8:1]/2-4[8:1],,,,
{8}2-6[8:1]/7-4[8:1],,,,2-5[8:1]/7-3[8:1],,,,
{8}1v4[8:1]/7-5[8:1],,1/7,,8v5[8:1]/2-4[8:1],,8/2,,
{8}7-4[8:1]/1-5[8:1],,1/7,,2-5[8:1]/8-4[8:1],,2b/8b,,
{8}1p4[8:1]/8q5[8:1],,1b/8b,,1-4[8:1]/8-5[8:1],,1b/8b,,
{8}7-4[8:1]/2-5[8:1],,,,6V84[8:3]/3,,2v5[8:1],,
{8}2b,,,,64,,35,,2-4[8:1],,5,,6-4[8:1],,3,,
{8}1b,1,5,3,8b,8,4,6,
{8}2b,2,4,3,7b,7,5,6,
{8}1b,4,3,8,2,6,5,7,
{8}1,5,3,7,4b,4,8b,8,
{8}2b,2,4,3,5b,5,4,6,
{8}8b,8,7,1,8b,8,2,1,
{8}3b,4,3,4,3,4,3,4,
{8}5b,6,5,6,5,6,5,6,
{8}3b,3,7,5,6b,6,2,4,
{8}3b,3,7,1,6b,6,2,8,
{8}1b,1,7,5,6,4,5,3,
{8}8,8,2,4,3b,5,4b,6,
{8}1b,1,8,8,7b,7,6,6,
{8}2b,2,4,4,6b,6,8,8,
{8}2b,1,2,1,2,3,2,3,
{8}4b,3,4,3,4,5,4,5,
{8}6-3[8:1],,6,,7-4[8:1],,7,,
{8}8-5[8:1],,8,,1,,4b/7b,,
{8}3-8[8:1],,3,,5-2[8:1],,5,,
{8}7-4[8:1],,7,,1,,2b/7b,,
{8}4-1[8:1],,4,,7-4[8:1],,7,,
{8}2-7[8:1],,2,,5,,1b/6b,,
{8}2-5[8:1],,2,,8-4[8:1],,8,,
{8}2>5[8:1],,2,,6v1[8:1],,6,,
{24}2b,3,4,5,,,{8},,1h[8:2]/8,,,,
{24}7b,6,5,4,,,{8},,1h[8:2],,,,
{24}2b/8b,3/7,4/6,5,,,{8},,8h[8:2],,,,
{24}7b/1b,6/2,5/3,4,,,{8},,3/6,,2/7,,
{24}1b/8b,2b/7b,3b/6b,4b/5b,,,{8},,,,,,
(65)
{4},,
(45)
{8}
6-3[16:1],,,,
3>2[32:1],,,,
2-6[16:1],,,,
6<7[32:1],,,,
(44)
7p5[16:7],,,,
(42.5)
,,
(37.5)
3-8[16:1],,
(32.5),7-4[16:1],
(30),,
(27.5)3-6[32:9],,,
(22.5),,
E
