&title=OrientalBlossom
&artist=影翔鼓舞
&wholebpm=180
&first=0
&des=1就
&des_1=Minalinskey
&des_2=Minalinskey
&des_3=Minalinskey
&des_4=Minalinskey
&des_5=1就
&lv_1=2
&lv_2=5
&lv_3=7
&lv_4=9+
&lv_5=12+
&inote_1=
(180){1},
1h[1:1],,2h[1:1],,{2}3,3,4,4,4,,4b,,
5,5,5,,6,6,6,,7,7,7,,8,8,8,,
1,1,1,,2,2,2,,3,3,3,,4,4,45,,
56,,56,,7,7,7,,8,8,8,,1,,2,2,
12,,34,,3,3,3,,4,4,4,,45,,45,,
6-3[1:1],,,,2-7[1:1],,,,18,,18,,18,,8,8,1b/8b,,,,
1,1,1,,2,2,2,,3,3,3,,4,4,45,,
5,5,5,,6,6,6,,7,7,7,,8,8,18,,
2,2,12,,3,3,34,,5,5,45,,6,6,56,,
7,7,78,,1,1,18,,2,2,3,3,4,4,5,5,5-1[4:6],,,,,,,,,E
&inote_2=
(180){1},
8h[1:1],,1h[1:1],,{2}3,3,2,2,1,,1b/8b,,{4}
5,,5,,6,6,6,,7,,7,,8,8,8,,1,,1,,2,2,2,,3,,3,,4,4,4,,
56,,,,7,7,7,,18,,18,,2,2,2,,34,,,,5,5,5,,46,,,,35,,35,,
2-5[1:1],,,,,,,,6,,6,,7,7,7,,
1-4[1:1],,,,,,,,5,,5,,4,4,6,6,
6-1[1:1],,,,,,,,2,,2,,3,3,3,,
45,,,,45,,,,36,,,,2,,2,,
1/8-5[1:1],,,,,,,,4-1[1:1],,,,,,,,
7,,7b,,2,,2b,,8,1,8,1,8,1,8,1,,,,,,,,,
12,,,,3,3,3,,45,,45,,6,6,6,,
78,,,,1,1,1,,27,,,,18,,18,,
18,,,,2,2,2,,34,,34,,5,5,5,,
67,,,,8,8,8,,12,,12,,3,3,3,,
45,,,,6,6,6,,7,,7,,8,8,8,,
12,,,,3,3,3,,45,,45,,6,6,6,,
8,8,8,,7,7,7,,6,6,6,,5,5,5,,
4,4,4,,3,3,3,,2,2,7,7,1,8,1,8-4[4:7],
{1},,,,,E
&inote_3=
(180){1},
8h[1:1]/1h[1:1],,2h[1:1]/7h[1:1],,
{4}3,3,34,,6,6,56,,45,,45,,3b/6b,,,,
5,,5,,6,6,6,,7,,7,,8,8,8,,1,,1,,2,2,2,,3,,3,,4,4,4,,
56,,56,,7,7,7,,18,,18,,2,2,2,,34,,34,,5,5,5,,46,,46,,35,35,35,,
2-5[1:1],,,,,,,,6,,6,,7,7,8,8,
1-4[1:1],,,,,,,,5,,5,,4,4,6,6,
6-1[1:1],,,,,,,,2,,2,,3,3,6,6,
45,,,,45,,,,36,,36,,27,,27,,
1/8-5[1:1],,,,,,,,5/4-1[1:1],,,,,,,,
7,,7b,,2,,2b,,8,8,1,1,8,1,81,1-4[4:4]/8-5[4:4],,,,,,,,,
12,,12,,3,3,3,,45,,45,,6,6,6,,
78,,78,,1,1,1,,27,,,,18,18,18,,
18,,,,2,2,2,,34,,34,,5,5,5,,
67,,67,,8,8,8,,12,,12,,3,3,3,,
45,,45,,6,6,6,,7,,7,,8,8,8,,
12,,12,,3,3,3,,45,,45,,6,6,6,,
8,8,8,,7,7,7,,6,6,6,,5,5,5,,
4,4,4,,3,3,3,,2,2,7,7,1,8,1,8qq4[4:14],
{1},,,,,E
&inote_4=
(180){1},
8h[1:1]/7h[1:1],,2h[1:1]/1h[1:1],,
{4}3,3,34,,6,6,56,,4,4,5,5,3b/6b,,,1,
28,,28,,7,7,7,,56,,56,,4,4,4,,35,,35,,2,2,2,,18,,18,,18,27,36,,
1^4[4:1]/8,,,,6,6,6,,7h[1:1]/8,,8,,1,1,28,28,3,4,75,,6,5,42,,3,3,6,6,45,36,27,,{8}
5/3h[4:3],,,5,,,5,,28,,,46,,,46,,
3,,4,,5,,6,,7,,8,,8,,8,,1,,2,,3,,4,,5,,4,,5,,2,,
4,,2,,7,,5,,7,,1,,1,,1,,
28,,,,{12}7,,3,,6,,{8}4,,,,45,,,,
2,,13,,8,,17,,6,,8,,8,,8,,1,,2,,3,,4,,45,,,,45,,,,{4}
6,3,7,2,8,8,1,1,
1/8qq3[4:5],,,,,,,,5/4qq7[4:5],,,,,,,,
6,6,5b/6b,,3,3,3b/4b,,8,1,8,1,
{8}8,8,1,1,8,1,8qq5[4:3],1pp4[4:3],{4},,,,,,,,
12,12,12,8,38,{8}4,5,4,,45,,3,,45,,6,,56,,
7,8,7,8,7,,1,,{4}28,7,1,7,56,45,34,2,{8}
12,,7,8,7,8,1,6,1,5,2,5,2,,1,,
78,,78,,78,,1,,16,,5,4,5,,45,,6,,45,,3,,34,,
2,1,2,1,2,,8,,
2,8,2,8,,,1,7,1,7,,,2,8,2,8,
1,,1,,8,,8,,27,,27,,36,,36,,
18,,18,,2,2,2,,34,,34,,5,5,5,,
67,,67,,8,8,8,,12,,12,,3,3,3,,
45,,45,,6,6,6,,57,,57,,8,8,8,,
12,,12,,3,3,3,,45,,45,,6,6,6,,
8,8,8b,,1,1,1b,,7,7,7b,,2,2,2b,,
6,6,6b,,3,3,3b,,5,5,5b,,4,4,4b,,
6,5,6b,6,3,4,3b,3,7,8,7b,7,2,1,2b,2,8b,1,8b,1,8b,8b,1b,1b,
2b,2b,7b,7b,8b,8b,1b,1bpp5[8:31],
{1},,,,,E
&inote_5=
(180){1},{8}
8h[4:3]/4p2[4:2],,,,,,,,1h[4:2]/5^7[8:1],,,,8,,37,,
1>7[4:2]/5,,,,,,8z4[4:2],,,,,,3h[2:1],,,,
4,,4,,28,,4,,5,,5,,17,,5,,
6,6,7,7,8,8,1,1,2,4,6,8,,7,5b/6b,7,
1^4[8:1]/8,,5,6,7^4[8:1],3,2,1,
8^3[8:1],,5^8[8:1],,4,,1v6[8:1],8,
7,,4v7[8:1],3,2,,1^4[8:1],6,7,8v3[8:1],2v5[8:1],,,,1,8,
2,1,5,6,4,5,3,4,1,8,2,1,3/8^5[8:1],,2,3,
4^1[8:1]/5,,7,6,5^2[8:1],6,7,8^5[8:1],
1,2v5[8:1],7v4[8:1],,,3,2,1,{16}
8h[8:3],,,,,,4,,7,3,7,3,8,4,6,2,
8,,2,3,4,,3,4,5h[8:3],,,,,,4,,
46,,7,8,7,,35,,2,1,2,,38,,47,,
3,4,2,5,2,,6,5,7,4,7,,1,8,1,8,
2h[4:1],,8,7,6h[8:3],,2,3,4h[8:1],,,,8,,3,,
25,,7,4,6,5,6,2,8,,8,,37,,,,
26,,1,,8,,7/3h[2:1],,,,5,,6,,7,,
3,4,3,4,2,5,2,5,1,6,1,6,8,7,8,7,
8b,,4,,2,,8,,,,3,,24,,,,
7h[4:1]/1h[4:1],,,,,,2h[4:1]/8h[4:1],,,,,,4,,5,,
2h[4:1],,,,4h[4:1],,,,5h[4:1],,,,7h[4:1],,,,
1,,6,5,8,,8-5[8:1],,8-3[8:1],,8-4[8:1],,,,,,
,,2,1,2,,8,3,8,,4,7,4,,6,5,
6,,2,,4,,6,,4,,,,2,,1,,8-4[8:1],,7,,6,,,,7,,8,,
1,,2,,3,4,3,4,8,7,8,7,5,6,5,6,4,7,3,8,
2h[4:1],,,,,,,,{6}67,56,45,{16}
3h[4:1]/4h[4:1],,,,,,,,3h[4:1]/2h[4:1],,,,,,,,
1b/8b,,,,34,,,,1b/8b,,,,56,,,,
3,4,1,,1-4[8:1],,1-6[8:1],,1-5[8:1],,,,,,,,
47,,3,,25,,1h[4:1]/6h[4:1],,,,,,78,,,,
5-7[8:1]/6,,,,8,,,,5-1[8:1]/6,,,,8,,,,
6,,6,5,6,,47,,3,4,3,,25,,2,,
1h[8:1]/8h[8:1],,,2h[8:1]/7h[8:1],,,36,,
4b/5b,,1,8,2,7,1,8,{8}
1,1,6,1,,1,,1,,1,,1,1,,18,,
8,8,3,8,,8,,8,,8,,8,8,,8>4[4:2],,
6b,,7,,8,,1<5[4:2],,3b,,2,,1,,8,,
7b,7,4,5,2b,2,5,4,{16}
6b,5,6,5,7,4,7,4,8,3,8,3,1s5[8:6],2,8,1z5[16:9],
,,,,,,,,,,,,,,,,
48,37,26,15,4,3,2,1,48,37,26,15,4,3,2,1,
{8}
4b/8b,,15,,74,6,2,4,
8q4[8:1],,5q1[8:1]*q2[8:1],,,,4-7[8:1],3,
2,,1-6[8:1],2,3,,4^1[8:1],8,
7,6-1[8:1],5-2[8:1],,,,7,1,
8q5[4:1],,5q2[4:1],,2,,4p7[4:1],,
5b,,4q1[4:1],,2b,,3,3,8,,1,2,1^4[8:1],8,7,6,
5^2[8:1],6,7,8,1,,56,,
48,,26,,5,3,7,5,
1p5[8:1],,4p8[8:1]*p7[8:1],,,,1v4[8:1],2,
3,,8v5[8:1],7,6^1[8:1],,4,,
3,2-5[8:1],1-6[8:1],,,,12,38,
24,3,4,35,,,57,6,
5,46,,,24,3,4,35,
46,5,6,57,,16,,28,7,7,2,5,{16}4,8,4,8,3,7,2,6,
1h[8:3],,,,,,5,,2,6,2,6,1,5,3,7,
1,,7,6,5,,6,5,4h[8:3],,,,,,5,,
35,,3,4,3,,46,,6,5,6,,47,,38,,
6,5,7,4,7,,3,4,2,5,2,,8,1,8,1,
7h[4:1],,1,2,3h[8:3],,7,6,5h[8:1],,,,1,,6,,
47,,2,5,3,4,3,7,1,,1,,26,,,,
37,,8,,1,,2/6h[2:1],,,,4,,3,,2,,
5,1,5,1,6,2,6,2,7,3,7,3,8,4,8,4,
8b,7,6,5,1h[8:3],,4,,5,,6,,8,1,2,3,
8h[8:3]/4b,,5,,4,,3,,2h[8:3],,5,,6,,7,,
81,,7,8,7,,1,6,1,,5,2,5,,5,,
3,4,3,4,2,6,2,6,5,7,5,7,1,8,1,8,
1b,,6,4,6,,6,,56,,46,,36,,26,,
1b/8b,,7,1,7,,7,,87,,17,,27,,37,,
5b/6b,,3,4,3,,3,,6,5,6,,47,,38,,
8,7,6,5,1,8,7,6,15,48,37,26,1z5[8:31]/5,48,37,26,
{4}
,8,7,6,5,4,3,2,1,8,7,6,5,4,3,2,
{1},,E
&amsg_time=
&amsg_content=
