&title=造花の貌
&artist=Akhuta
&first=0.4
&des=Soxps
&lv_5=14+
&inote_5=(200)
{1},,,,
{8},,,2b/6b,,3,2b/4,,
{8}1h[8:5]/6bqq8[8:13],,,,,,,2,,3,,4,,2,,3,,4,
{8},5,,7b/3b,,6,5b/7,,8bqq2[8:7]/3h[8:5],,,,,,,,,4,4,8,{16}2,2,4,,35,,3,,3,,
{8}1b/6,,24,3,21,3,4/8<5[8:1],,3-7[8:1]/8,,4>5[4:2]/3,,4/2h[4:1],,,,1,1,
{16}24,,3,3,5,,46,,7h[4:1],,,,
{16}6b,,,5b/7,,,4b/6,,,3b/5,,,2b/4,,,1b/3,,,
{16}2b/6,,2,4,3,,46,,7,5,6,,6h[16:3]/4,,,2,5,4,7b<3[4:1],,,,1,,1,,2,,2,,
{16}3/5<8[8:1],,,,5v2[8:1]/4,,,,5/6,,,,7b/1,,6,,7/5,,6,,15,,2,2,4V68[4:1],,,,1,,2,,
{16}4h[4:1],,,,1,,2,,38,,2,,35,,6,6,4,,5,,74,,6,,15,,,,
{16}3b,4,3,,46,,7b/5h[4:1],,,,
{16}6b,5,6,,35,,2b/4h[4:1],,,,3b,4,2,,17,,7b,5,6-2[8:1],,6,,{1}5bpp7[8:11],,
{8}75,,6,56,,46,,3,2-4[8:1]/5h[4:1],,,,
{8}6,46,,35,,34,,3,2h[4:1]/4-6[8:1],,,,
{8}7h[4:1],,8,1/6,,75,,6,6-8[8:1]/4h[4:1],,,,
{8}4,31,,2/8h[4:1],,3,3/4h[4:1],,2,3/8-2[8:1],,{16}3,,4,,5,6,5,6,5,,5,,
{8}7b/5h[8:3],,6,6-8[8:1],,4,,3,2-4[8:1]/1h[4:1],,,,
{8}7,7/8-2[8:1],,6,,5,,3,4-6[8:1]/3h[4:1],,,,
{16}28,,,,34,,3h[4:1]/4,,,,5,,6h[8:1],,5,5,7,,3,3,4,,2,,
{8}3/8b,,7h[4:1],6,5h[4:1],6,7-4[8:1],,8-5[8:1],,1<4[8:3],,
{8}2h[4:2],,,,3>8[8:1],,2-5[8:1],,4-8[8:1],,,,
{8}2b/6,,3,3h[4:1]/4,,5,4,6,5h[4:1]/7-1[8:1],,,,
{8}2,2/4,,35,,6h[4:1]/4,,5-7[8:1],,4,3,,
{8}2h[4:1]/8,,8,71,,6h[4:1]/1V35[8:3],,,7,8,8h[4:1],,
{8}5,4/7h[4:1],,4,3/6,{16}3,4,2,,4,3,5,,46,,6,5,7,4,6,5,8bz4[8:1],,8b,,,,,,
{8}1h[4:1],,7,26,,34,5,2,3-1[8:1]/4,2,5,,7,7/5h[4:1],,6,4,7,5/6-8[8:1],7,4,3,
{8}1/2,8,3b-5[8:1]/7,3,6b-3[8:1],6,2b-6[8:1],2,7,7h[4:1],8,{16}8,6,1,5,2,4,
{8}3bq8[8:3],,8,8,7V53[8:4],,3,3,2,2,1p4[8:3],,4,4,5,5,6,3,{16}7,5,6h[8:1],,4,,4h[8:1],,7-3[8:1],,8,,
{16}1b/7,,,2,,2,4,,3/5b,,,6,4,,71,,2b,,4,3,,,5,4,6b,,,,
{16}3b,4,3,4,1,4,1,4,3,5,3,5,4,7,4,7,2,6,2,6,8b,7,8,7,1,8,1,8,2,1,2,1,3b,8,3,8,4,7,4,7,3,6,3,6,
{24}2b,,,4,3,,,,5h[6:1]/6,,,,7b,,,1,8,,,,1h[6:1]/2,,,,3b-7[8:1],,,{16}4h[4:1]/8b,,,,,,
{16}5,,8/5h[8:7],,,,7,,,,7,,,,7,,7h[4:1],,,,5,6,5,6,
{16}5>8[4:5],,,,7,,,,7,,,,6,,,,5,,,,4,,,,3,,,,
{16}4h[8:8]/2,,,,2,,2,,,,2,,2,,,,2,,4,3,
{16}4<8[4:3],,,,2,,,,2,,,,3,,,,4,,,,5,6,4,7,
{16}1b,,6h[4:1],,5,,4h[4:1],,7,,8h[4:1],,1,,2h[4:1],,7,,6h[8:1],,2,5,3,4,
{16}1b,,6,5,7h[8:1],,3,6,4,5,4,5,3b,5,4,5,7b,5,4,5,1b,,,,
{16}37,,6,,35,,4,,5-1[8:1]/8,,8,7,6-3[8:1],,,,2-5[8:1]/6,,,,12,,8,,7-4[8:1],,5,4,3-6[8:1],,,,8-4[8:1]/3,,,,8>3[8:1],,,,8<5[8:1],,,,8,,,,
{16}2b/6b,,3,,46,,5,,4-8[8:1]/1,,1,2,3-6[8:1],,,,7-4[8:1]/3,,,,78,,1,,2-6[8:1],,6,5,4-7[8:1],,,,4>1[8:1],,,,4-8[8:1],,,,2-6[8:1]/4,,,,12,,,,
{16}3b/7b,,4,5,3,,24,,5,4,6,5,8-6[8:1],,,,8p4[16:2]/3,,2,,1,,,,
{16}2b/5b,,5,4,6,,57,,3,5,2,4,1>4[8:1],,6,,1-5[8:1],,8,,17,,6,,
{16}7h[4:1]/4b>1[8:1],,,,4,,6,,5,,4h[4:1],,2,,3h[4:1],,5,,6,,47,,47,,
{16}5b,6,5,6,4b,7,5,6,3b,8,5,6,2b-6[8:1],,,,7b-3[8:1]/2,,,,7/8b,,,,{24}2,4,2,4,2,4,
{16}1b,,,,2-5[8:1]/8,,8,7,6-3[8:1],,,,1V35[4:1]/6,,,,5,,6,,7-3[8:1],,4,3,2-6[8:1],,,,5,6,7,8,1b-5[8:1],,,,2b-6[8:1]/1,,,,8b-4[8:1]/2,,,,8/1b,,,,
{16}25,,6,,7-4[8:1]/1,,1,2,3-6[8:1],,,,73,,7,,58,,4,,36,,3,4,2,,6,5,8,,17,,6b/2bw6[8:1],,,,2b,,,,4b/8bw4[8:1],,,,8b,,,,26,,5,,3,4,2h[4:1],,1,,1,,38,,7,5,6,,35,,2,4,3,4,1,5,3,5,8,6,5,6,1b,7,5,7,3b,6,5,7,1bw5[8:1],,,,1b,,,,3,7,3,7,5,6,5,6,2,4,2,4,1,8,1,8,2b/7,,,,
{16}3b,7,5,6,2b,4,3,7,5b,6,2,4,1b,8,2,7,3b,6,4,5,{32}4b,3,2,1,8,7,6,5,
{8}4bV62[16:5]/8h[4:1],,,,7,,5V37[16:5],,1,,2,,
{16}4,3,6,5,3,2,7,6,1,5,1,5,{24}2b,3,4,6,7,8,3b,4,5,7,8,1,{32}4-8[8:1],5p1[32:3],6,7,8,1,2,
