&title=カウントダウンラブ
&artist=I'm a Cutie Finder
&first=0
&des=已对pv投降
&des_5=已对pv投降
&lv_5=13+
&inote_5=(143){4},{8},,,,,,6<2v4[2:1],
,,,,3x,{16},3x,,,{4}3/5xh[2:1],
{8}4,4,,5/7,{16},3/4,,,{8}7/1z5[8:3],
,,,,8,{16}8,4,,4,
{8}5s1[16:3],5,3,3,2-4[8:1],2,8,8,
{4}7/2>5qq3[8:3],{8}7,7,6,6,5,4,
2-7b[8:1],3-6[8:1],2,3,8h[8:1],{16}5,1,7,3,6,4,
{8}5,7/8,4,1/2,{16}3,6,1,8,{32}E2,E3,E4,E5,E6,E7,E8,E1,
{2}E2/Cf,{8}2,{16}6,3,{4}4/5,
{64}4-1[32:3]/5-8b[32:3],,,,,,,,,,,,,,,,,Cf/B7/E7/B6/B2/B3/E3,,,,,,,,,,,,,,,{4}2x/7x,{8}3/6,{16}4,5,
3,4,2,1,3,4,,2h[16:7],,,{8}E1/B1/B8,{4}E5/B4/B5,
2-4[8:1],8/2-6[8:1],{16}2/5,,,5,,,3,3,
{8}5-7[8:1],6,5/4-8[8:1],3,4/5,6-2[16:1],{16},6x/1-5[16:1],,,{4}1x,
6/4,{16}1/2-4[8:1],,,8,{8}2,7,
5,3,{4}2/7-1[8:1],7/2-4[8:1],2/7,
B7/E7/B6/B2/B3/E3,{8}1/5,2,{16}6/3h[16:3],,,5,{8}4,6h[8:3],
,7,8,1,{4}2z6[4:1]/8s4[4:1],2/8,
{8},5,3/6,2,{16}1/7-5[8:1],,,8,{8}7,2,
4,5,4/6,3,{4}2-6[8:1]/7-3[8:1],7/2s6[16:3],
2,{8}4x<7[8:1]*>1[8:1],4x,,,8,8,
1b,{16}7,7,{8}2,{16}8,8,{8}3b,{16}6,6,{4}A5f,
{16}4b>2[8:1],,,8,,,{8}6,{16}4<7[8:1],,,8,,,{8}2,
{16}4>1[8:1],,,8,,,{8}6,{16}4q8[8:1],,,1,,,{8}3,
{16}5V31[8:1],,,1,,,{8}7,{16}5<1[8:1],,,1,,,{8}3,
{16}5>1[8:1],,,1,,,{8}7,{16}5bV71[8:1],,,1b,,,{8}3b,
{16}5>2b[8:1],,,8,,6,{8}6,{16}4<7[8:1],4,,1,,3,{8}3,
5>1[8:1],{16}8,8,,,{8}6,{16}4q8b[8:1],4,,1,,3,{8}3,
5>1[8:1],{16}8,8,,,{8}6,{16}4V68b[8:1],4,,1,,,3,3,
{32}8x,7,{16}6,4,5,{8}3,{16}2x,4x,{8}2x,{16}1,8x,,3,{8}6x,
{2}4b/5<7[8:1],{32}B2,B3,,,,,,,,,,,,,,,{16}3,
,,3,,,{8}4/2,{32}B6,B7,,,,,,,,,,,,,,,{2}5/6<8[8:1],
{32}B2,B3,,,,,,,,,,,{8}4/B7,
{16},,6,5,{8}7,{16}2,4,{4}3-7[8:1],6,
{16}B8/E7,,,B2/B7,,,{8}C/E4,,6,6x/5x,{16}4,4,
6,5,{8}7,{16}5,6,,6,{8}5>3[8:1],7,{4}7,
{16}B1/E3,,,B7/B2,,,{8}C/E6,,3,3x/4x,{16}5,5,
3,4,2,4,3,5,,5,{8}4<7[8:1],2v5[8:1],4,2,
,7,7,7,{16}2,6,4,6,3,5,4,5,
{8}1b,{16}7,6x/8bx,,3,{8}2bx/4x,8b/1b,{16}6/5,4bx/7bx,,,{8}B6/E7/B3/E3,
,,,,,,,,4/2,
7/8,{16}5/3,3,,7,{8}4-8[8:1],{16}5,2,{8}4,1,
2/6,8/4,{16}3/6,6,,2,{8}8v3[8:1],{16}1,6,{8}8,5,
4/2,3,{16}5/7,6,,1,{8}4-8[8:1],{16}2,5,{8}4,7,
6/1,{16}5,3,,8,{8}2bpp5[4:1],,1,8,7,
6,3,{16}3,5,,5,{8}7-4[8:1],8,1,2,
3h[16:3],{16}6-1[8:1],6,,5,{8}5,{16},2,{8}1,{4}8/3h[8:1],
{8}4/7h[8:1],5,5/2h[8:1],4,6/4,{16}5,7,2x,4x,5x,7x,
{8}2bx/8x,{16}5,4bx/6x,,2,{8}8bx/3x,{4}4w8[8:1],{64}B4f,B2/C/B6/B1/B7/B8,,,,,,,,,,,,,,,{8}1x/7xh[8:1],
2,{16}3/8,8,,2,{8}5-1[8:1],{16}4,7,{8}5,6,
5/2,4/8,{16}6/3,3,,7,{8}1v6[8:1],{16}8,3,{8}1,4,
5/7,6,{16}4/2,3,,8,{8}5-1[8:1],{16}6,3,{8}5,2,
3/8,{16}4,5,3,7,{8}1bqq6[4:1],,2,3,4,
5,6,{16}6,4,,4,{8}2>5[8:1],1,8,7,
6h[8:1],{16}4,4,{8}5-1[8:1],6,{4}5/3-8[8:1],3/5,
{8}1/6h[8:1],8,8/3h[8:1],{16}1,1,{8}2-5[8:1],2,6,7,
2x/8bx,{16}4,5x/3bx,,7,{8}1x/6bx,{64}5w1b[8:1],,,,,,,,,,,,,,,,,B5f/E5/E6,,,,,,,,,,,,,,,{4}3/8qq6[8:1],
8/1,5/4qq2[8:1],4/5<1[4:1],
1V75[4:1],5pp6[4:1],1,{8}2,3,
{4}4>1[8:1],{8}6/4,7,{4}8<5[8:1],{8}8/3,2,
4/1,{16}2x,3x,{8}4x/8x,{16}3x,2x,{8}5x/1xw5[8:1],7x,{4}B1/E1/E2,
7/2pp4[8:1],2/1,6pp8[8:1],6/5>1[4:1],
1V35[4:1],5qq4[4:1],8,{8}7,6,
{4}5p8[8:1],5/6,7<4[8:1]*>2[8:1],7qq4[2:1]*pp2[2:1],
{8},,,,,3h[4:1],{4}8b,
{64}4-1[32:3]/5-8b[32:3],,,,,,,,,,,,,,,,,Cf/B7/E7/B6/B2/B3/E3,,,,,,,,,,,,,,,{8}2/7,3,4/6,5/7h[2:1],
,8,1,2h[8:5],,E5/B5/B4,{4}B8/B1/E1,
{8}1>4[8:1],1,{16}E1,E8,E7,E6,,,6,4,{8}5pp6[8:1],3,
{4}B5/B6/4xqq3[8:1],B4/B3/5xpp6[8:1],B5/B6/4xqq3[8:1],B4/B3/5x>7[16:5],
{8}2x,{16},,,,2,2,{4}6>3[4:1],3V57[4:1],
7<2[4:1],2V46<1[16:5],{8}8,B1/B2/E2,{4}B4/B3/E4,
{8}3h[8:1],{16}4,2,{8}7h[8:1],{16}8,6,{8}4h[8:1],{16}5,3,{8}7,B7h[8:5]/B6h[4:3]/B2h[8:7]/B3h[1:1]/Cfh[8:9],
,,,,,,,,,,,,{4}E2,
{8}B3,B4,
{2}E5,{4}E8,{8}B6,B5,
E5,,,B3,{4}B4,{8}B6,B5,
,E3/E7,E6/E4,E5,,,{4}B8,
{2}B1,E3,
E7,B3,
{8}B6,,,2,{16}3,,,4,,,{8}4h[8:5],
{16}7,,,6,,,{8}6,{2}5h[1:1],
{16}E2,,,E3,,,{8}E4,{2}E5,
{4},,,B6/B3,
{8},,,,8/2-5[8:1],7,{16}6/2,6,,7,
{8}4-8[8:1],{16}5,2,{8}4,3,4/7pp1[8:1],5/1,{16}3/7,3,,2,
{8}8v3[8:1],{16}1,6,{8}8,5,4/2,3,{16}5/7,6,,1,
{8}4-8[8:1],{16}3,6,{8}4,7,6/1,{16}5,4,6,2,{8}8bpp3[4:1],
,7,6,5,4,3,{16}3,5,,5,
{8}7<4[8:1],8,1,2,3h[8:1],{16}5,5,{8}4>1[8:1],3,
{4}4/6pp8[8:1],6/4,{8}4/7h[8:1],5,5/2h[8:1],{16}4,4,
{8}3v1[8:1],5,6,7,2x/8bx,{16}6,5x/7bx,,2,{8}8x/3bx,
{64}4w8b[8:1],,,,,,,,,,,,,,,,,B4f/E5/E4,,,,,,,,,,,,,,,{4}6/1pp3[8:1],1/8,
4/5qq3b[8:1],5<1[16:4],1V75b[4:1],5pp6[4:1],
1,{8}3,4,{4}5<8[8:1],{8}3/5,2,
{4}1>4[8:1],{8}1/6,7,5/8,{16}7x,6x,{8}5x/1x,{16}6x,7x,
{8}4x/8xw4b[8:1],2x,{4}B8/E1/E8,7/2pp4[8:1],2/1,
6pp8b[8:1],6/5>1[4:1],1V35b[4:1],5qq4[4:1],
8,{8}7,6,{4}5p8[8:1],5/6,
7<4[8:1]*>2[8:1],7pp5[2:1]*p4[2:1],{8},,,,,,7,
6,{4}5<8[8:1],{8}4,3,
{4}2>5[8:1]*<7[8:1],2qq6[16:7]*q5[16:7],{8},,,,,6b/3b,
{4}8b/1b,{64}4-1[32:3]/5-8b[32:3],,,,,,,,,,,,,,,,,Cf/B7/E7/B6/B2/B3/E3,,,,,,,,,,,,,,,{4}2x/7x,
{8}3/6,{16}4,5,3,4,2,1,3,4,,2h[16:7],
,,{8}E1/B1/B8,{4}E5/B4/B5,3/7-5[8:1],1/7-3[8:1],
{16}7/4,,,4,,,4,4,{8}5-7[8:1],6,5/4-8[8:1],3,
4/5,6,{16},7x/1h[16:9],{32},,,,E8,E7,E6,E5,E4,E3,E2,E1,E8,E7,E6,E5,E4,E3,E2,E1,
{4}E8/C,5bxpp4[2:3]/3bxqq4b[2:3],
E
