&title=7 Colors
&artist=kors k feat.吉河顺央
&first=0.01
&lv_5=13
&des_5=白-ster
&inote_5=
(156){4},2x,5h[8:1],{16}6x/3x,{8},{16}3,
5,3,{8}5,6,5,4,3,6,5,
4,3,B5,E3,E8,B4,B6,B2,
E7,B3,8bx,7,6,5,1,2,
3,4,{16}5x,6,7,8,1,2,5/3,6,7,8,1,2,
3,4,{8}5/6xh[8:1],,3h[8:1],,4h[8:1],,5h[8:1],
,6bh[8:1],,7h[8:1],,8/1,7/2,4,
{16}5,3,5,3,{8}5bh[8:1],{16}4,3,2,7,6,5,3,2,1,7,
6,5,3,2,1x/7b,{8},{16}2b/4x,{8},8b/6x,{4},{32}D1,
A8,D8,A7,D7,D7,A6,D6,{8}3x/5x,{16}2,8,,7,{8}3,{16}4,5,,6,
{8}2,1,1/7-4[8:1],{16}7,8,{8}7,{16}1-5[8:1],2,{8}3,{16}8/1-3[8:1],7,
{8}6,1,8-5[8:1],{16}8,1,{8}8,{16}3,2,1-5[8:1],8,{8},{16}1,
7,{8},{16}8-5[8:1],1,8,1,{8}8,3,{32}A3/A6,D3/D7,A2/A7,D2/D8,{8}A1/A8,
{16}8-4[8:1],2,8,2,{8}8,2h[8:1],{4}5<7[8:1],{16}1x/5,2x,{8}3x,
8bx/4bx,1bx/5bx,{16}6<8[8:1],2,6,2,{8}6,{16}2x,3x,{8}4x/7-3[8:1],2,
7,1h[8:1],{4}4-8[8:1],4/6xh[8:1],{16}1x-4[8:1],7x,{8},{16}1,
8,{8},{16}2-5[8:1],1,2,1,{8}2x,{16}1x-4[8:1],8x,7x,6x,{8}1x,
6h[8:1],3,{32}A5,D6,A6,D7,A7,D8,A8,D1,{8}3/A1,5,3,6,
5/4,7h[8:1]/2h[8:1],,5/4,6/3,2/7,8,{16}1,7,
{8}1,7h[8:1],{4}2h[8:1],8-5[8:1],8/1-4[8:1],
{8}1,7,3x,{16}2,1,{8}2h[8:1],3h[8:1],4h[8:1],5h[8:1],
6h[8:1],7bx,{4}1-4[8:1],1/8-5[8:1],{8}8,2,
5/3,{16}4,6,4>2[8:1],6,4,6,{8}4x,{32}D2,A1,D1,A8,D8,A7,D7,A6,{8}D6,
{16}3-1[8:1],5,3,5,{4}3x,{8}7h[8:1],{16}1,2,{8}3,{16}6,4,
7,3,8,2,{4}1h[4:1],,{8}7<5<7[4:1],3,
7,2,{32}A7,D8,A8,D1,{8}A1,{4}4/3-8[8:1],3/4-7[8:1],
{8}4,3,{4}2,{16}6xh[16:1],3h[16:1],7h[16:1],2h[16:1],8h[16:1],1h[16:1],7h[16:1],2bh[16:1],
{4},1x-3[8:1],{8}7-4[8:1],8,2-5[8:1],1,
7-4[8:1],8,{4}2h[8:1],{8}3,5h[4:1]/4h[4:1],{32},,,,,D4,A3,D3,
A2,D2,A1,D1,A8,D8,A7,D7,{4}C/A6,{16}3,5,{8}3,5-2[8:1],6,
4-7[8:1],3,{4}5,{16}1x,2x,{8}3x/6h[8:1],4h[8:1],7h[8:1],
2h[8:1],1h[8:1],{32}D1,A8,D8,A7,{8}D7,{4}5x/4x,{16}2,8,{8}2,
{4}5/4,{16}1,2,3,4,5,6,7,8,{32}1/A8,D8,A7,D7,A6,D6,A5,D5,
A4,D4,A3,D3,A2,D2,A1,D1,{4}A8/Cf,,,,{8}5/3-1[8:1],
4,3/6-1[8:1],7,6/2-5[8:1],3,
{4}2/8-4[8:1],8/1>3>1[4:1],1,{32}A7,D7,A6,D6,A5,D5,A4,D4,
{8}A3/1-5[8:1],6,{4}1/7-3[8:1],7-5[8:1],7-2[8:1],
7-4[8:1],{8}7/1,2,3,{16}4,{32}5x,D6,A6,D7,A7,D8,{8}A8,
{16}3xh[16:1],1xh[16:1],3xh[16:1],1xh[16:1],{4}3x-6[8:1],2-7[8:1],1-5[8:1],
1/8-6[8:1],{8}8,1,2,3,{16}5,4,{32}5,D6,A6,D7,
{4}A7/1-4b[8:1]*-6b[8:1],1b,{8}5h[8:1],3h[8:1],7h[8:1],2h[8:1],
{16}8-3b[8:1],7,6,5,{4}8bx,2h[8:1]/4h[8:1],{8}3,{16}5,4,
6,3,7,2,{32}8x,D8,A7,D7,{8}A6,{4}5/2-6[8:1],2/8-4[8:1],
8/1-5[8:1],{8}1/7<5<7[4:1],7,7/1>3[8:1],1,1,{32}A3,D4,A4,D5,
{4}A5/7b-2[8:1],7,{16}3,5,4,6,{4}5h[8:1],
{16}8,4,7,3,{8}6xh[8:1],4h[8:1],8h[8:1],2h[8:1],{4}6b,
{8}8-4[8:1]/1-5[8:1],3/6,{4}1/8,{8}2-5[8:1],2,7-4[8:1],7,
{4}1h[8:1],{8}4-7[8:1],3-8[8:1],4,3,{32}5,D6,A6,D7,A7,D8,A8,D1,
{4}A1/3-6[8:1],3/7-2[8:1],7/3h[8:1],4h[8:1],
{16}6,4,7,3,8,2,{8}1h[8:1],,7h[4:1]/3h[4:1],{32},,,,,D7/D3,A6/A2,D6/D2,
A5/A1,D5/D1,A4/A8,D4/D8,{8}A3/A7,{4}5bx-1b[8:1]/1bx-5b[8:1],1/5,7-3[8:1]/3-7[8:1],
3/7,{8}2-4[8:1],7-5[8:1],2,7,{16}1,2,3,4,
{4}5/7-3[8:1],7/1,{16}2x-5[8:1],6,{8},{16}2,7,{8},5xh[8:1],
2xh[8:1],{16}5,3,6,4,{8}7-3[8:1],1,{4}7/4,
{16}2,5,{8}2,2/7-5[8:1],3,{4}7/4h[8:1],{8}2-5[8:1],8-5[8:1],
2b,8b,{16}1,2,3,4,{8}5-2[8:1],7h[8:1],{4}5bx,
{16}8-4[8:1],1,8,1,{8}8bx,2h[8:1],,3,{16}4-1[8:1],5,{8},4/6,
7,{16}2,7,1,6,{8}8,{16}2x,6x,{8}2-5[8:1],8,
2,8,1-5[8:1],7,1,6,3-7[8:1],5,
3,6,{16}1,7,2,8,{8}3,{16}8,3,7,2,{8}6,
{4}3xh[8:1]/5x<5<5[1:1],5x,{8},,,,,,,{32}A2,
D3,A3,D4,A4,D5,A5,D6,A6,D7,A7,D8,A8,D1,A1,D2,A2,D3,A3,D4,
{1}A4/Cf,
E
