&title=ドーピングダンス
&artist=STEAKA
&first=0
&des=Rainmaker
&lv_5=13+
&des_5=Rainmaker
&inote_5=
(194){4},{8},,,,,,6,
4,5h[4:1],3,,3,6,5/4,
{16},,3,4,{8}3,5,2,4,2-4[8:1],5,
,7,6,5h[4:1],,1,2,3h[4:1],
,6,{4}5/7,{16}2,6,2,6,{4}2h,
{8}6,4,5h[4:1],3,,6,3,4/5,
{16},,6,5,{8}6,4,5,3,{4}2h[4:1],
{8}6,3,{4}4h[4:1],{8}8,7,{4}6h[4:1],
5,5,{8}5w1[8:1],6/4,{4}5,
{8}7x-4[8:1],1,7,1,2-5[8:1],6,2,7,
,8-4[8:1],1,8,2-6[8:1],6,2,8,
7-4[8:1],1,7,1,2-5[8:1],8,{4}2,
{8}7,6,5/1,2,{16}8,3,7,3,{4}7h,
{8}8b/2-5[8:1],7,2,6,7-4[8:1],4,{4}7,
{8}1-5[8:1],8,1,6,7-3[8:1],3,7,1,
2-5[8:1],6,2,8,7-4[8:1],1,7,2b,
3,5,6/2,3,{16}8,4,8,4,{4}7b,
{2}7-3[8:1]/3-7[8:1],{8}2-6[8:1],8-4[8:1],2,8,
,1-5[8:1],,1/6,,8,{4}7/3,
5b/1b,6/2,{8}7/1,2/6-3[8:1],5/3,6/2q4[4:1],
,2,,7x,{16},,8,1,{4}7b/2,
6/2b,7/3,{8}1,2/6,3,5b/4-1[8:1],
,4/6,,8,,2,{4}7/3-6[8:1],
3b/8-5[8:1],8/4-1[8:1],{8}4/7,6,,6/2-6[8:1],
,8/2,,7h[4:1],,1,{4}6/2-5[8:1],
2/8b,{8}7/3,{16}8,4,{24}7,6,5,1,2,3,{8}8/4,2/6,
{16},,6,2,{24}7,6,5,2,3,4,8,7,6,1/5,,,{4}2b/6-4[8:1],
6/1,{8}2/6,{16}1,5,{24}2,3,4,8,7,6,{8}1/5,3/7,
{16},,7,3,{8}7,6,{16}1,5,1,5,{4}1-5[8:1],
8,{8}7h[16:1],3h[16:1],6h[16:1],2/6h[16:1],1,5,
{4}6/3,{8}7/1,6,2-5[8:1],7,{4}8b,
6,{8}2,5,4-1[8:1],7,4,6,
,8/4,,3/7,{16}2,6,2,6,{4}2,
8b/4,6/2-6[8:1],{8}2,8,,7q1[4:1],
,7/1,,2,{4}3-8[8:1],5-1[8:1],
2p8[4:1],8-3[8:1],{8}7,6,4x,5-8[8:1],
,1pp4[8:3],,,,,{4}7,
2b/6-1[8:1],2-5[8:1],2/8,{8}8,7-4[8:1],
,7/3-8[8:1],,3,6>3[8:1],1,{4}6/2-5[8:1],
7-3[8:1],1/7,{8}2,5-8[8:1],4,5,
,3/7,,6/2<5[4:1],,4,{4}4-8[8:1],
2bx-5[8:1],7,{8}8,1,7,6/2-5[8:1],
,2/8V64[4:1],,8,{4}2,3/6,
5/1-5[8:1],7/1,{8}8<5[8:1],1,8,2h[8:3],
,5p3[4:1],,3-6[8:1],,,{4}1-5[8:1],
1b,8/4>1[8:1],{8}7,6,,1-4[8:1]/5-8[8:1],
,5/1,,7/3,,7,{4}1/6-1[8:1],
6/3-8[8:1],7-3[8:1],1-5[8:1],8-4[8:1],
{8}2,,,E1,{4}Cf,3b/7b,
1/5-8[8:1],5/2-5[8:1],{8}2/7,8,7-3[8:1],1-5[8:1],
7,1,8-4[8:1],2-6[8:1],8,2,5V71[4:1],5x,
1x,2,3x,4,8/5x-1[8:1],7-3[8:1],5,7,
{4}2xw6[8:1],2b,{8}7x/1xq5[8:1],5>1[8:1],1,8,
{4}7-4[8:1],7/1,{8}1q5[8:1],5>1[8:1],1,8,
{4}7-3[8:1],7/1,{8}2/4,1,8/2,7/3,
{4}6/4-7[8:1],2/4-1[8:1],4/6,{8}7,{16}1,2,
{4}7/3-7[8:1],{8}7/3,6,{4}1/5b-1[8:1],3,
8/4-1[8:1],4/7-4[8:1],{8}7,1,2-6[8:1],8-4[8:1],
2,8,1-5[8:1],7-3[8:1],1,7,4V28[4:1],8,
7/4x,6,5x,8x,1x/4x-8[8:1],2-6[8:1],4,2x,
{4}7bw3[8:1],7,{8}2x/7-3[8:1],1-5[8:1],7,1,
{4}8w4[8:1],8,{8}7x/2-6[8:1],8-4[8:1],2,8,
{4}1w5[8:1],1,{8}8,1/7,2/6,5/3,
{4}4q1[4:1],1q6[4:1],6<1[4:1],1>8[8:3],
{2}5x,B7/E7/B6/B2/E3/B3/Cf,
{8}3x/7x,6/2,{4}3/7,{8}1x/6,5-8[8:1],3,5/2x-5[8:1],
,8x/2x,7,6xh[4:1],7,8,{4}7x/1x>4[8:1],
{8}1,8,{4}3x/7x-2[8:1],4x>1[8:1],{8}8x,7p6[4:1],
,7,{4}1h[4:1],{8},2/8,7/3,4/6,
5-8[8:1],3-6[8:1],5,3,7-4[8:1],1-5[8:1],7,1s5[4:1],
,8x,{4}8xh[4:1],{8}4x,3/7x,{4}2/6z2[4:1],
{8}6,1,{4}1h[8:3],{8}8,7,1/6h[4:1],2-4[8:1],
,2x/6-1[8:1],,6x/2-5[8:1],3,7x,{4}6x>7[1:2],
{2}6,Ch[2:1],
,C,
{4}Ch[2:1],6x,(97)5x<4[4:3],4,
{2}Ch[4:1],{4}C,4>5[0.6186##2.4742],
5,Ch[4:1],,E1,
(194){2}Ch[4:1],{4}1x,1,
8/2,8/2,7/3,7/3,
6/2,6/2,5/3,6/4,
5/2,7/3,8/2h[2:1],7,
6x,6/2,{8}1b/5b,1,6/2,6,
3/7,3,8/4,8,3/7,6,5/1,2,
3/7,6,1/5,2,{16}8,4,8,4,7,3,7,3,
{32}6,5,4,3,2,1,8,7,6,5,4,3,2,1,8,7,{8}6b/2b,,,5,
{4}1-5[8:1],8b,4/8-5[8:1],8/3-8[8:1],
{8}3/6,7,7-3[8:1],1-5[8:1],7,1,8-4[8:1],2-6[8:1],
8,2,5V71[4:1],5,1,2,3,4,
8/5x-1[8:1],7x-3[8:1],5,7,{4}2xw6[8:1],2,
{8}8/4,7,1-5[8:1],8,{4}1/7-3[8:1],7/3,
{8}5/1,2,4-8[8:1],1,{4}2-5[8:1],2/6,
{8}7-4[8:1],1,7,2,{4}6/3-5[8:1],7-4[8:1],
1-5[8:1],8,3/6-1[8:1],{8}1,2,
{4}3/8-4[8:1],1,6/2-7[8:1],2/6-3[8:1],
{8}6,1,2-6[8:1],8-4[8:1],2,8,1-5[8:1],7-3[8:1],
1,7,4xV28[4:1],8,4,7,6,5x,
1x/4-8[8:1],2x-6[8:1],4x,2x,{4}7xw3[8:1],7x,
{8}7x-3[8:1],1-5[8:1],7x,1,{4}8xw4[8:1],8,
{8}2x-6[8:1],8-4[8:1],2x,8,{4}1xw5[8:1],1,
{8}7,6/8,1/5,4/2,{4}3q8[4:1],8q5[4:1],
5q1[4:1],1>8[8:3],{2}5h[2:1],
{4}1xw5[8:1],Cf,{8}3b/7b,6/2,{4}7/3,
{8}5/1,7/3,2/6,8/4,{2}7-3[8:1]/3-7[8:1],
{8}2/8,3/7,{4}4/6,{8}2/6,3/7,{4}2/6,
4/8,{8}6,1>4[8:1]/5<8[8:1],,1-6[8:1]/5-2[8:1],,,,7x/1x,
{4}6x/2x,{8}5b/1b,6/2,{4}7/3,
{8}6/2,5/3,4,8,{4}7-4[8:1]/3-8[8:1],7/3,
{8}1,8/2,{4}7/3,{8}5/1,7/3,{4}4/8-4[8:1],
1,{8}1,2>5[8:1]/6<1[8:1],,2-6[8:1]/6-2[8:1],,,,7x/1x,
{4}6x/2x,{8}6b/2b,8/4,7/3,5/1,
{4}6/2,{8}7/3,6/4,,7/1,{4}6/2,
8/4,6/2,{8}8,7/3,6/4,1,
{4}2/6,{8}7/3,8<5[8:1]/4>1[8:1],,8-3[8:1]/4-7[8:1],,,,8x/1x,
{4}7x/2x,{8}2b/6b,8/4,7/3,5/1,
{4}6/2,{8}3/7,4/6,,1/7,{4}2/6,
7-4[8:1]/3-8[8:1],3/7,{8}1b/5b,3/7,,8/4,
{4}6b/2b,{8}1b/5,{32}1b/7,2,3,4,,,,,{8}8b/3,{32}8b/2,7,6,5,,,,,{8}1b/7,
{32}1b/6,2,3,4,
E
