&title=メッちゅう殴打
&artist=STEAKA feat.山田じぇみ子
&first=0.382
&des=Zamykal
&lv_5=14
&inote_5=(178)
{8}7xh[8:1]/5x,5h[8:1],6,2xh[8:1],4h[16:7],3h[4:1],,,
{8}1xh[8:1]/2x,2h[8:1],8,1xh[8:1],7,7/8,{16}E2,E3,E4,E5,
{8}6xh[8:1],2h[8:1],4,1xh[8:1],7h[8:1],3,1/8,1/8,
{16}3,,3,,2/4,,6,5,6,5,7,,4b/8b,,,,
{8}1x/3xh[8:1],1h[8:1],2,6xh[8:1],5h[8:1],7,{16}E2,B2,B3,E4,
{8}6xh[8:1],2h[8:1],5,3xh[8:1],7h[8:1],4,{32}D7,A6,D6,A5,D5,,,,
{16}2h[4:1],,,,1,,3,4,3,4,2-4[8:1],,5,,2x,,
{8},5/6,2/4,6/8,2b/7b,E4,E5,E6,
{4}1-4[8:1]*-6[8:1],1x,
{16}6h[8:1]/5h[8:1],,,7h[8:1]/5h[8:1],,,4h[8:1]/3h[8:1],,,4h[8:1]/2h[8:1],,,6/5,,7/4,,,,E6,,E5,,E4,,
{4}8-3[8:1]*-5[8:1],8x,
{16}2h[8:1]/4h[8:1],,,3h[8:1]/4h[8:1],,,7h[8:1]/5h[8:1],,,6h[8:1]/5h[8:1],,,3/4,,2/5,,,,E3,,C,,E7,,
{4}2-5[8:1]/8-5[8:1],2x/8x,
{16}4h[8:1]/6h[8:1],,,4h[8:1]/6h[8:1],,,5h[8:1]/3h[8:1],,,5h[8:1]/3h[8:1],,,4/6,,3/7,,,,E7,,C,,E3,,
{4}1-4[8:1]/7-4[8:1],1x/7x,
{16}5h[8:1]/3h[8:1],,,2h[8:1]/6h[8:1],,,4xh[8:5]/8x,,
{8},7x,5x,3x,1xh[2:1],E3,E4,E5,
{8}Chf[4:1],,8xw4[8:1],,8b,,2/6,2xh[4:1]/6x,
{8},4,3x/5x,6,5/7,8,{16}2,1,2,1,
{8}Chf[4:1],,1xw5[8:1],,1b,,2/8,2x/8xh[4:1],
{8},5,7x/1x,4,2,3/4,4/5,5/6,
{8}7h[8:1],,1xw5[8:1]/Cf,,1b,,3/7,3x/7xh[4:1],
{8},1h[8:1],5xh[8:1],3h[8:3],,8,2,4,
{8}5h[8:1]/6h[8:1],,8xw4[8:1]/Cf,,8b,,1/7,5xh[8:1]/6xh[8:1],
{8},4/3,7/5,3/1,4/5h[2:1],,1b,,
{16}A2/A3f/A4/D3/D4,,,,1/7,,6,5,6,5,6,,{48}B2,B3,E4,,,,E8,B7,B6,,,,
{16}1,,8,,1/7,,2,4,2,4,3,,6,6,5,,
{8}7h[8:1],1h[8:1],3h[8:1],5h[8:1],8h[8:1],3h[8:1],6h[8:1],1h[8:1],
{4}4x<7[8:1],2x-5[8:1]/4x-8[8:1],2x/4x>1b[8:1],4b/7b,
{16}5/6h[8:1],,,,4/6h[8:1],,,,5/7h[8:1],,,5,7h[8:1],,4,,
{16}4/6h[8:1],,4,,5/6h[8:1],,5,,4/7h[8:1],,,4,7h[8:1],,5,5,
{16}6,,4,,3h[8:1]/5,,5,,2h[8:1]/4,,,4,2h[8:1],,4,,
{16}3/5,,2xh[128:1],,4/6,,7,8,7,,1,,2x/8x,,,,
{16}4/3h[8:1],,,,5/3h[8:1],,,,4/2h[8:1],,,4,2h[8:1],,5,,
{16}5/3h[8:1],,5,,4/3h[8:1],,4,,5/2h[8:1],,,5,2h[8:1],,4,4,
{16}3,,5,,6h[8:1]/4,,4,,7h[8:1]/5,,,5,7h[8:1],,5,,
{16}6/4,,8xh[128:1],,5/3,,2,1,2,,2h[8:1],,5,3,6,4,
{16}7x,,,,7/1,,7,,7/2,,7,3,7,,7,,
{16}4/6,,5,,3/4,,2,,8,1,8,1,2/7,,,,
{16}5/2,,2,,2/4,,2,,2/3,,2,1,2,,2,,
{8}2/7,1xh[128:1]/8xh[128:1],2/7,3,6h[8:1],5h[8:1],4h[8:1],3h[8:1],
{16}1,,8,,2/7,,6,,2/5,,3,4,3,,2/5,,
{16}4,,5,,3/6,,7,,3/8,,2,1,2,,3/8,,
{8}B7/D7/E7,E6,E3,E4,D1/E1,D8,D7,D6,
{8}3,2/4,2-5[8:1]/4<6[8:1],2/4,2x/4x,,,7,
{4}8v3[8:1]*v5[8:1],8x,
{16}2,4,2,4,3h[8:1],,7,5,7,5,6h[8:1],,3,,2h[8:5]/4,,,,8,,7,,6,,
{4}5v2[8:1]*v8[8:1],5x,
{16}7,1,7,1,6h[8:1],,2,8,2,8,3h[8:1],,7,8,7h[2:1],,,,5,,4,,3,,
{4}2v5[8:1]/8v5[8:1],2x/8x,
{16}6,4,7,4,6h[8:1],,3,5,2,5,3h[8:1],,1,,2/8h[2:1],,,,2,,3,,4,,
{4}4v1[8:1]/6v1[8:1],4x/6x,
{16}2,8,2,8,2h[8:3],,4,,,,3,,3/4,,4/5,,5/6,,7,,4,,7,,
{16}1x,8,2,7,1x,,1x>4[8:1],,,,1/5x-7[8:1],,,,2xV48[4:1]/5,,
{8},1,8,7,7-5[8:1]*-3[8:1],,7,,
{16}2x,4,2,4,3x,,3x-7[8:1],,,,3/6x-4[8:1],,,,2xV83[4:1]/6,,
{8},3V51[4:1],4,5,6,6-8[8:1],2,6,
{16}3x,1,3,1,2x,,2x-5[8:1],,5V38[4:1],,2x,,7,,7x-4[8:1],,
{8},7,1-5[8:1],2-4[8:1],1V73[4:1],2,1,4,
{8}4bh[4:1],,8xpp2[8:1]*qq6[8:1],,8x,,1/7,1x/7xh[4:1],
{8},5,2/4,6/8,3x-8[8:1]/7x-4[8:1],,3b/7b,,
{8}2xqq5[4:1],,2/5-3[8:1]*-7[8:1],,,,1/8,8x<5[8:1]/1x,
{8},8-3[8:1]/4,,8/4,,2/5,2-6[8:1]/5,1,
{8}2x-4[8:1]/4x-8[8:1],,2<7[8:1]/4,,2/5-8[8:1],,1/5,3x<6[8:1],
{8},3/7>2[8:1],,4-1[8:1]/7,,4/8,8-5[8:1]*-6[8:1],,
{8}8x>3[8:1],,7-4[16:3]/8,,4V68[4:1]/7,,1,1x-3[8:1]*-5[8:1],
{8},1<6[8:1],,1/4pp2[8:3],,8,8-4[8:1],,
{8}8x>3[8:1],,5/8<5[8:1],,4-2[8:1]/8,,4,7bqq8[8:3],
{8},1,1-5[8:1],,1,,7x-5[8:1]/4x-8[8:1],,
{8}4b/7b-3[8:1],,6-2[8:1]*-8[8:1]/7,,6,,1/3,1x-5[8:1]/3x-1[8:1],
{8},1/3-7[8:1],,2qq6[8:3]/3,,6,5,4,
{8}4x-7[8:1],,2-5[8:1]/4,,2/7pp6[8:3],,6,6V47[4:1],
{8},1-5[8:1],,1,,8,1/7,2/6,
{8}3x-5[8:1]/5x-7[8:1],,3/5>2[16:3],,8-4[8:1],,8,1x<6[8:1],
{8},1-5[8:1]/4-2[8:1],,1/4<8b[4:1],,3,3,3,
{4}2x-4[8:1],1-5[8:1]/2,1/3-8[8:1],3/7-4[8:1],
{4}2xq6[8:1]/7,2/5xq1[8:1],3xq7[8:1]/5,3/8xp4[8:1]*q4[8:1],
{4}8b>3[8:1]*<5[8:1],8b,{32}E7,E6,A5,,,,E3,E4,A4,,,,8,,,,
{16}8b,,2,4,2,4,3h[8:1],,7x,,7,5,7,5,6h[8:1],,
{24}1x,2,3h[6:1],,,,7x,6,5h[6:1],,,,{16}3,4,3,4,2b,,1/8,,
{16}7,5,7,5,6,6,6,,2,4,3,4,1b,,,,
{16}3,4,2,4,1,8,1,8,5,7,5,6,4,5,3,4,
{24}2xh[16:1],,,2xh[16:1],,,8,1,8,{16}1,,6,5,6,,3/4h[4:1],,,,
{24}1x,2,3h[6:1],,,,7,,,7,,,7x,6,5h[6:1],,,,2,,,2x,3,4,
{2}8xz4b[2:1],{4}4w8[8:1],Cf,
{8}2x/5x,3,4/7,4/7-1[8:1],,3-5[8:1],,6<1[4:1],
{8},1>4[4:1],,4<1[12:5],,2,3,4,
{8}5,5,4,3-1[8:1]/7,,7-5[8:1],,2-8[8:1],
{16},,6-4[8:1],,,,1h[4:1],,,,3,,2/4,5,6,7,
{8}3/8,3,4,5/1-7[8:1],,4-2[8:1],,8-6[8:1],
{8},3V17[4:1],,7v2[4:1],,6,6,5,
{8}4x,4,1x/5,1,2/6x,6,3x/7,3,
{16}4x/8x,,3x/7x,,2x/6x,,1x/5x,,4qq4[4:1]/8qq8[4:1],1/5,2/6,3/7,4/8,
