&title=AIZO
&artist=King Gnu
&first=0.01
&des=かぜきよ
&lv_5=13+
&des_5=かぜきよ
&inote_5=
(190){4},,{2}3xqq4[2:1]/5xpp4[2:1],
{8},,,,2x/8x,8x,7/3v6V42[16:5],7,
{2}6h[4:1],7p3b[8:1]/8v3b[8:1],
7v4b[8:1]/8q4b[8:1],{8}5x/3x,3x,2/6v3V57[16:5],2,
{2}1h[4:1],4qq5[2:1]/6pp5[2:1],
{4},,2x>5[8:1],2/7>2[8:1],
{2}7/4z8[8:1],6x-1[8:1]/2xp5[8:1],
7-4[8:1]/3xq8[8:1],{12}2xh[12:1],4x,3x,7xh[12:1],5x,6x,
1h[12:1],4,2,8h[12:1],5,7,{2}4h[8:3],
{16}4x,4,4,4,4,4,{8}4,{4}3bx-7[8:1]/5bx-1[8:1],3bqq4b[4:1]/5bpp4b[4:1],
A5/A3,A4,5/2v5q1b[4:1],{8}6/2,6>3[8:1],
,6,,,{4}8>3[8:1]/4<7[8:1],8-5[8:1],
{24}8/E4,B3,B2,E2,,,{4}8xq4b[8:1]/4xv7b[8:1],4/8,{8}8x<5[8:1],5xp4[4:1],
,C,,2,{4}2q7[4:1],7>2[4:1],
2>5[4:1],5q2[4:1],2q7[4:1],{8}5,5w1[8:1],
,D6/A5/D5,,3,{4}3p7b[8:1]/7v4b[8:1],7/3-6-1[4:1],
A3,{8}2xv5b[8:1]*p6b[8:1],2x,{4}2x,{8}4/8,4>1[8:1]/8<5[8:1],
,4/8,,,{4}6bx-2[8:1]/4bx-8[8:1],6bpp5b[4:1]/4bqq5b[4:1],
A4/A6,A5,4/7v4p8b[4:1],{8}3/7,3<6[8:1],
,3,,,{4}1<6[8:1]/5>2[8:1],1-4[8:1],
{24}1/E6,B6,B7,E8,,,{4}1xp5b[8:1]/5xv2b[8:1],5/1,{8}1x>4[8:1],4xq5[4:1],
,C,,8,{4}8-4[8:1],8/6-2[8:1],
6,5<8[8:1]*>2[8:1],5,{8}1,1w5[8:1],
,A1/D1/D2,,2,2v5b[8:1],5q1b[8:1],,6-3-7-4[8:3],
,6/2h[4:1],,,,,,6/2q3[8:13],
{1}2/6q7b[2:3],
{2},,C,
Ch[4:1]/2q3[4:5],
,Ch[4:1],
,Ch[4:1]/2-6[4:5],
,Ch[4:1],
,Ch[4:1]/4z8[4:5],
,Ch[4:1],
,Ch[4:1]/1s5[4:5],
,1-5b[8:1],
{4},,5h[4:3]/B1,B2,
B3,B4,6h[4:3]/E2,E3,
E4,E5,7h[4:1]/A1,A2,
7h[4:1]/A3,A4,8h[4:1]/D2,D3,
8h[4:1]/D4,D5,6/B1,6/B2,
6/B3,6/B4,7/E2,7/E3,
7/E4,7/E5,8/A1,8/A2,
{8}8/A3,7,4/6h[8:1],4,5/3h[8:1],5,6-2[8:1],5,
4w8[8:1],4,,,{4}5pp5[4:1]*qq5[4:1],A5/E6/E5,
A5,{8}B7/E7/B6/C/B5/E5/B4/B2/B3/E3,1xV38[4:1],,8-4[8:1],4-7-5[4:1],4,
,,,,{4}2q6b[8:1]/1v6b[8:1],A1/D2/A2,
1p5b[8:1]/2v5b[8:1],A2/D2/A1,{8},3v5b[16:3],,4-8b[8:1],
{4}4,D8/A8/D1,4qq4[4:1]*pp4[4:1],E5/A4/E4,
A4,{8}B7/E7/B6/C/B5/E5/B4/B3/B2/E3,8xz4[4:1],,4xqq4pp5b[2:1],,1x,
{2}1xh[4:1],{4}2xp5[8:1]/1x-6[8:1],A1/A2/D2,
7x-4[8:1]/8xp3[8:1],A8/A7/D8,{8}5x-7[8:1],5x-3[8:1],5x-8[8:1],5x-2[8:1],
{1}5x-1s5<4b[1:1],
{2},2x-6[16:11],
{4}2x-6b[8:1],Cf,3bx-7[8:1]/5bx-1[8:1],3bqq4b[4:1]/5bpp4b[4:1],
A5/A3,A4,2v5q1b[4:1],{8}2/6,6-3[8:1]*-4[8:1],
,6,,,{4}8<5[8:1]/4>1[8:1],4p7[8:1],
{24}4x/A8,A1,A2,A3,,,{4}8xp4b[8:1]/3xv8b[8:1],3/8,{8}1x>4[8:1],4xq6[4:1],
,C,,7,{4}7-4[8:1],7/1-6[8:1],
1/3-8[8:1],3/5<8[8:1]*>2[8:1],5,{8}1,1w5[8:1],
,D1/A1/D2,,7,{4}7q3b[8:1]/3v6b[8:1],3/7-4-1[4:1],
A7,{8}7v4b[8:1]*q3b[8:1],7,{4}7,{8}2/6,6<1[8:1]/2>5[8:1],
,2/6,,,{4}6bx-2[8:1]/4bx-8[8:1],6bpp5b[4:1]/4bqq5b[4:1],
A4/A6,A5,7v4p8b[4:1],{8}7/3,2-5[8:1]*-6[8:1],
,2,,,{4}7<4[8:1]/3>8[8:1],7p2[8:1],
{24}7x/A3,A4,A5,A6,,,{4}6xv1b[8:1]/1xq5b[8:1],1/6,{8}8x<5[8:1],5xp3[4:1],
,C,,2,{4}2-7[8:1],2/8-5[8:1],
8/6-3[8:1],6/4qq2[8:1]*pp6[8:1],4,{8}8x,8xw4[8:1],
,D8/A8/D1,,7,7v4b[8:1],4p8b[8:1],,2x-5<3[2:1],
,2/7h[4:1],,,,,,6q2b[8:1]/2v5b[8:1],
{2}6/2,8z4b[16:3],
E
