&title=裏表ラバーズ
&artist=wowaka
&first=0
&des=Sc_Ar
&lv_6=13+
&inote_6=(159){1}
,
{2}5h[4:1],5h[4:1],1h[8:15],,,{8}5,5,5,5,
{8}2/4,{16}3,5,4V26[16:3],7,5,6-1[8:1],{8}4,5,8,,
{8}7/5,{16}6,4,5V73[16:3],2,4,3-8[8:1],{8}5,4,1,,
{8}3/5,{16}2,4,3-1[12:1],5,4-8[8:1],6,{8}3-7[8:1],4,3,,
{8}6/4,{16}7,5,6-8[12:1],4,5-1[8:1],3,{8}6-2[8:1],5,6,,
{8}3/5,{16}4,6,2V48[16:3],1,3,8-2[12:1],{8}2,7,6,,
{8}4/6,{16}5,3,7V51[16:3],8,6,1-7[12:1],{8}7,2,3,,
{8}2/4,{16}3,5,2-4[12:1],8,1-5[8:1],7,{8}2-6[8:1],1,2,,
{8}7/5,{16}6,4,7-5[12:1],1,8-4[8:1],2,{8}7-3[8:1],8,7,,
{8}2/4,{16}3,5,3,6,3,7,3,8,2>5[8:1],1,3,8,2,,,,
{16}7<4[8:1],8,6,1,{8}7,1-5[8:1],2-4[12:1],1,2,7,
{16}5,6,5,6,5,6,3,4,3,4,3,4,3,4,2,1,2,1,3,4,3,4,2,1,3,4,2,1,3,4,
{16}2,1,3,8,4,7,5,6,8,7,1,6,2,5,3h[4:1],,,,8-5[16:1],,,4-1[16:1],,,6-3[16:1],,,2-7[16:1],,,,,
{16}6,,4,5,4,,7,8,7,,2,1,2,,5,4,5-7[12:1],,8-4[8:1],,5,,8,,7,5,6,4,5,3,4,,
{16}2,1,3,1,2,,7,8,6,8,7,,3,4,2,4,3,,6,5,7,5,6,,2,1,3>6[2:1],8,4,6,
{4}3h[8:15],,,{8}5,6,7,8-4[8:1],,8-5[8:1],,8-6[12:1],,8,,
{16}2/4,,7,5,6,,2,4,3q7[8:1],,7q3[8:1],,3,,,,,,8,6,7,,1,3,
{8}2,4,6,8,1-5[8:1],,1/7-4[8:1],,7/3-8[8:1],,3/6<3[8:3],,6h[2:1],,,,1w5[8:1],,1b,,
{16}3,,8,2,7V58[16:3],1,6,8-4[8:1],7,,2,,3,,,,
{16}6,,1,7,2V41[16:3],8,3,1-5[8:1],2,,7,,6,,,,
{16}3,,6,8,7-5[12:1],1,8-4[8:1],2,{8}7-3[8:1],8,7,,
{16}6,,3,1,2-4[12:1],8,1-5[8:1],7,{8}2-6[8:1],1,2,,
{16}3,,6,5,7V53[16:3],4,8,3-7[8:1],7,,2,,1,,,,
{16}6,,3,4,2V46[16:3],5,1,6-2[8:1],2,,7,,8,,,,
{16}3,,7,5,6-8[12:1],4,5-1[8:1],3,{8}6-2[8:1],5,6,,
{16}3,1,2,8,1,7,8,6,5,7,4,6,3,5,2,4,
{16}1-3[12:1],,5,5,1-5[8:1],,7,7,1-4[8:1],,6,6,1-6[8:1],,5,5,1-3[12:1],,4,4,1,,5,5,1,4,2,5,3,6,4,,
{16}7-5[12:1],,2,2,7-1[12:1],,3,3,7-4[8:1],,4,4,7V51[16:3],,3,3,7,,2,,3qq4[16:5],5pp4[4:1],,3,5,,,,,,,,
{16}2,3,4,1,2,3h[8:1],,1,7,6,5,8,7,6h[8:1],,8,3,4,3,,1V75[8:1]/8-6[8:1],,5-3[8:1]/6-4[12:1],,1/8,,,,,,,,
{16}1,2h[8:1],,7,6h[8:1],,4,3h[8:1],,7,8h[8:1],,2,3h[8:1],,5,6h[8:1],,8,7,1w5[16:3],6,8,,,,,,,,
{16}3,4,2,,5/6,,7,1,6,8-4[8:1],7,1,,8,,,6,5,7,,4/3,,2,8,3,1-5[8:1],2,8,,1,,,
{16}7-4[16:1],8,,7,,,2-5[16:1],1,,2,,,6-3[16:1],3-6[16:1],,6,,,
{16}2,,1,8,2,7,3,6,4w8[8:1],5,3,,4,,,,8/2,,2,4,2,,2,6,2,,2,8,2,,7,5,7,,7,3,7,,7,1,7,,5,,4,,2,,
{4}7/8,5/6,3/4,1/2,{8}3b/5b,1b/7b,6bpp5[16:5]/4bqq5[16:5],8b/2b,6b/4b,,,,
{16}2,8,4,6,1-5[8:1],7,3V17[16:3],,1,,3,,,,,,
{16}6,4,8,2,5-1[8:1],3,7V53[16:3],,5,,7,,,,,,
{16}2,6,4,7,1-6[8:1],5,3V52[16:3],,1,,3,,,,,,
{16}6,4,8,3,5<4[3:1]*p4[3:1],1,7,,,,,,,,,,
{16}2,1,4,5,8<5[8:1],7,3qq5[24:7],,8,,3,,,,,,
{16}7,8,5,4,1>4[8:1],2,6pp4[24:7],,1,,6,,,,,,
{16}3,5,1,7,4q8[8:1],6,2>5[8:1],,4,,2,,7s3[4:1],,,,3s7[4:1],,,,7>3[4:1],,,,3<7[4:1],,,,7,,,,
{16}1,2,3,4,7,6,5,4,2,1,3,8,4,7,5,6,4,3,2,1,8/7,6,5,4,2-5[8:1],1,3,8,2,,,,
{16}6,4,5,3,4,5,6,7,{8}1/8,2/7,3-6[8:1]/6,4/5,{4}3b/7-2[8:1],7b/4-1[8:1],4b/8-5[8:1],1/8b,
{16}2,4,3,8,6-2[8:1],7,3V51[24:5],,6-8[12:1],,3,,6,,,,
{16}7,5,6,1,3-7[8:1],2,6V48[24:5],,3-1[12:1],,6,,3,,,,
{16}3,4,2,6,5-1[12:1],7,2V48[24:5],,5-7[12:1],,2,,5,,,,
{16}6,5,7,3,4>5[3:1]*q5[3:1],2,7,,,,,,,,,,
{16}2,1,4,5,8v5[8:1],7,3V57[16:3]*V51[24:5],,8,,3,,,,,,
{16}7,8,5,4,1v4[8:1],2,6V42[16:3]*V48[24:5],,1,,6,,,,,,
{16}3,4,1,8,5-1[8:1],6,2-4[12:1],,5V73[4:1],,2,,5,,,,
{4}2-6[8:1],2/8-4[8:1],8/3-7[8:1],3qq4[4:1]/5pp4[4:1],
