&title=VOY@GER ミリオンライブ!バージョン
&artist=高坂海美/白石紬/望月杏奈
&first=0
&des=让让我吧
&lv_5=13
&inote_5=(138)
{1}
,,
{4}
1v3>2v4[8:12]/8v6<7v5[8:12],,,,,,,,
5h[8:16]/4-8-4[8:12],,,,,,,,
2,4/E5,2,4/E6,2,4/E7,2,4/E8,
2,4/E1,2,4>7[16:12]/C,,Ch[4:2],,,
{16}
7v2[8:2]/5xh[16:4],,,,,,,,
4,,,5,,,4-1[8:4]/6h[8:2],,,,,,,,,,5,,,,5p1<6[8:4],,,,
{8}
3xh[16:4],,,,
{16}
2,,,2,,,1-4[8:4]/B5f/E6/E5/A5,,,,,,,,,,7,,,,8h[8:4],,,,
{24}
6x,5x,4x,3x,2x,1x,,,,
{16}
6h[16:5],,8,,,3h[16:3],,,1v7>8-5[8:4],,,,,,2h[4:1],,,,,,,,
{8}
3,,2-5[
8:1],,4,,7-4[8:1],,5,,1-5[8:1],,4,,8-4-2-5[8:4],,C,,,,1x,,
{48}
A1/6x/B1,C,B5,A5,,,
{16}7h[16:2],,,,
{32}
6h[32:3]/3,4,5,,,,,,5h[32:3]/2,3,4,,,,,,
{48}
A1/4x<7q8[8:6]/B1,C,B5,A5,,,
{8}
,3x,3x,,2>5[16:2],2,,,
{48}
A8/5xh[16:2]/B8,C,B4,A4,,,
{8}
,4x,,3h[32:1]/5h[32:1],46,75,
{48}
A8/B8,C,B4,A4,,,
{16}
,,2x,,2,5,4,7h[16:5],,,8,,4h[8:1],,,,
{48}
A8/D8,A7,D7,A6,,,A4/D4,A3,D3,A2,,,
{8}
5xh[8:2],,
{24}
7x,8x,1x,2x,3x,4x,
{8}
7,
{48}
D4/A3/8x<5p4[8:6],D3,A2,D2,A1,,
{8}
,1x,1x,,3>8[8:1],,,,
{48}
A1/B1,C,B5,A5,,,
{8}
7h[8:1],3,,2h[32:1]/6h[32:1],48,15,
{48}
A1/B1,C,B5,A5,,,
{8}
,3,24,3,6V41b[8:3],7,,,
{4}
8,8/Cf,7/8h[4:1],7,6/1h[4:1],6,5/2h[4:1],5,
6h[4:1]/4,3,5h[4:1]/2,{8}1,4b/2b>5qq6[2:1],,,,,7h[8:1]
,,7x,,
{8}
8-4[8:1]/2,7,6,,5-2[8:1]/3,5,6,,8-4[8:1]/2,7,6,,5-8[8:1]/3,5,6,,
1-5[8:1]/7,2,3,,4<7[8:1]/6,4,3,2xv5s1[8:3],,8,8xh[8:3],,,,6bq7[4:1]/1b>4[8:1],,,,Cf,,
{16}
74,,7,5,6,4,5,,34,,1,,3/4q8[16:2],,5,,2v5[16:2],,,,7,,,,
{8}
46,1,46,5,
{16}
37,,3,1,2,8,1,,68,,5,,6/8pp5[16:6],,1,,6,,,,7,,,,
{8}
8q4[8:1],4<7[8:1],8x,,
{16}2,,2,5,3,7,8,,
{8}
1p5[8:1],5>2[8:1],1x,,
{16}7,,7,4,6,1,5,,
{8}
2-5[8:1],2,2x/6,,
7-3[8:1]/4,8,7x/4,,
5v2>3v6b[8:4]*v8<7v4[8:4],
{8}
,,,,,,,
3>5[2:2],,,,,,,,2-8-5[2:2],,,,,,,,1<1[8:13],,,,,,,,7,,,,7<5[8:1],,,,
{4}
1h[8:8],E4,B5,B7,
8h[8:6],E7,C,E3,
{8}
26,2,28,2,
{8}
24,2,1h[48:5]/5h[48:5],
{48}
2x/6x,3x/7x,8x/4x,1x/5x-1<6[32:9],,,
{8}
,,,,,,
3>6[4:1]/C,,6<3[4:1],,5-8[8:1],,5,4p8<5[4:1],3,2,
,1,2-5[8:1],
{16}
,4,2,,7,,A8f/E8/E1/B8,,
{16}
3/5x,,7-3[8:1],,,4,7V51[4:1],,,2,7,,3,,3,,
{8}
8x-4[8:1],3,2,1,8-4b[8:1],,
7,
7<2[4:1],,2>7[4:1],,1-4[8:1],,1,8V24-6[4:1],7,6,
,1,8-6[8:1],4,8/5-1[8:1],3,4qq4[8:3]*pp4[8:3]/5,2,B4f,,,,,
2,6,
7/1pp3pp6[8:5],,5,E5f/B5/B4,,1,,8,7,
{16}
4h/6h,,,,2,,8,8,1,,24,,
{8}
7,7h[4:1],,1h[4:1],,4h[4:1],5,5p4[8:2],,,6<3[4:1],,
,4,4-8[8:1],,6,6,,52,47,{16}8,8,
{8}
1b,,36,1-4[8:4],28,,,,,6,,8V64[2:1],17,,,,,Chf[8:3],,,
{8}8b,,
{16}1x,2x,6x,5x,
{8}2,3/4,4/6,5/7,
{16}8,,2x,B2,,,7,7,1,,3,3,5,,Ch[8:1],,7-5v4[64:13],,,,
3xh[64:5],,3xh[64:5],,
{32}
2xh[32:6],,,,4x,,5xh[32:8],,,,,,{16}4,3,
{8}
,
{16}2,,2,3,5,,7,8,
{8}3h[8:1],1b,,
{8}82,,
{16}7x,6x,3x,4x,
{12}7h[6:1],,5xh[6:1],,4xh[24:7],,
{16},,2,,2,,5,6,3,,
{16}
,,7h[8:1],,1,1h[16:3],,,
{8}
6,
{16}
1x,2x,7x,6x,
{16}
3,,,27,,,4,5,
{8}
,3,{16}3,6x,3,,
{8}
8,2,2>4qq8[8:5]/5q6[8:5],
E
