&title=Acid God
&artist=Yuta Imai
&first=-0.99
&des=Mr. N for Nitrous acid
&des_5=Mr. N for Nitrous acid
&lv_5=14
&inote_5=(160){4},,,,{1}4w8[8:11],
,7h[1:1],
1>5[2:1],
{8}6,5,7/4,{16}5,6,5,6,{8}5,7/4,{16}3,4,
3,4,{8}3,5/2,{16}3,3/6,,,{8}5h[8:1],{32}E4,B3,B2,E2,E6,B6,B7,E8,
{8}1x,1,2/7,{16}1,8,1,8,1,8,{32}1,2,3,4,8,7,6,5,
{4}1-5[8:1],1,{2}Ch[4:1],
{8}1/8,1,1/2,2,3/2,3,4/3,4,
5/4,5,5/6,6,6x/7x,8x/7x,8x/1x,2x/1x,
{16}2,1,2,1,3,8,3,8,4,7,4,7,{24}5>6[4:3],6,5,6,5,6,
{1}5b,
{16}3,4,{8}3,{16}6,5,{8}6,{16}3,4,,6,{8}5,3,
{16}6,5,{8}6,{16}3,4,{8}3,{16}6,5,,3,{8}4,6,
{16}4,5,{24}3,6,3,{16}5,4,{24}6,3,6,4,5,4,5,4,5,{4}4-2[8:1],
{8}4/5-1[8:1],6,5/2-4[8:1],3,2/8-4[8:1],7,{4}4b/8b,
{6}5h[12:1]/3h[12:1],6h[12:1]/2h[12:1],7h[12:1]/1h[12:1],8h[12:1],7h[12:1]/1h[12:1],6h[12:1]/2h[12:1],
{12}3,3,3,7,7,7,{32}1-5[8:1],2,3,4,5,6,7,8,{4}1bx,
{12}6x/4x,5,5,6/4,5,5,6/3,5,5,6/4,{24}5x,5x,{12}5x,
,4,4,5/3,4,4,6/3,{24}4x,4x,{6}4x,{24}5x,5x,{12}5x,
,4,4,5/3,4,5,6/4,5,4,3,4,5,
{16}6/4-1[8:1],,,7,7-4[8:1],,,8,,1<6[8:1],{8}1,{24},,,,,,{12}5,
4,4,3/5,4,4,6/3,4,4,3/5,{24}4x,4x,{12}4x,
,5,5,4/6,5,5,3/6,{24}5x,5x,{6}5x,{24}4x,4x,{12}4x,
,5,5,4/6,5,4,3/5,4,5,6,5,4-8[4:3],
{2}3,{4}4-8b[12:1],4,
7h[8:1]/1h[8:1],7/1,4h[8:1]/3h[8:1],4/3,
{16}2,5,2,5,1,6,1,6,{12}7-4[8:1]/8-3[8:1],7/8,7/8,8b/7b,{48},,,,,,,,{16}3,
4,3,5,3,4,3,6,3,4,3,7,3,4,3,8,
3,4,3,7,3,4,3,6,3,4,3,5,3,4,3,4,
{4}3bpp6[2:3],{8}2h[16:1],2h[16:1],1,1,8,8,
7h[16:1],7,{16}8,1,2,3,{2}4bx,
{16}6,5,6,4,6,5,6,3,6,5,6,2,6,5,6,1,
6,5,6,2,6,5,6,3,6,5,6,4,6,5,6,5,
{4}6bqq3[2:3],{12}2h[24:1],2h[24:1],2h[24:1],1h[24:1],1h[24:1],1h[24:1],8b<3[4:3],{1},{16},,{24},{16}3,
4,3,5,3,4,3,6,3,4,3,7,3,4,3,8,
{8}3bx/7bx,3bx/7bx,{16}6bx/4bx,6bx/4bx,{8}6bx/4bx,{16}3,3-7[8:1],,5,{4}5,
{16}6,5,6,4,6,3,{8}6,{16}6h[8:1]/2h[8:1],,,3h[8:1]/7h[8:1],,,{8}8h[8:1]/4h[8:1],
,1/5,1/5,{24}8,7,6,5/4,3,{12}2,{48},{16}8b,,,,,{4}6bx>4[8:1]/1bx-3[8:1],
6bx-8[8:1]/1bxv4[8:1],6bx-4[8:1]/1bx>3[8:1],6bx<8[8:1]/1bx-5[8:1],
6bx-3[8:1]/1bx-4[8:1],6bx/1bx,{16}2bx/1bx,2bx/1bx,2bx/1bx,2bx/1bx,{8}2bx/1bx,{32}2bx/1bx,3bx/8bx,4bx/7bx,5bx/6bx,
,,,,{16}6bx,7bx/5bx,,3bx,{8}4bx/2bx,{16}7bx,8bx/6bx,,2bx,{8}3bx/1bx,{32}1bx,8bx,1bx,8bx,
{1}1bp8[2:1]*>8[2:1],
8bw4b[4:9],
,,{12}3,
4,5,4,5,6,{2}5h[2:1],
{1}3v5[2:1]*V15[2:1],
6<1[2:1]*>3[2:1],
1-4<5[2:1]*<8-5[2:1],
5-8[2:1]*>8[2:1],
1<4v3[2:1],
2>2[2:1],
5-8>5[2:1],
4<6b[2:1]/3v4[2:1],
{16}4bx,5,4,5bx,4,5,4bx,5,3bx,4,3,4bx,3,4,3bx,4,
2bx,5,2,5bx,2,5,2bx,5,1bx,6,1,6bx,1,6,1bx,6,
2bx,7,2,7bx,2,7,2bx,7,3bx,8,3,8bx,3,8,3bx,8,
{1}2bv7V14[2:1],
{16}3,4,2,4,3,4,1,4,3,4,1,4,{32},8,7,6,5,4,,,{16}6,
5,7,5,6,5,8,5,6,5,8,5,{32},1,2,3,4,5,,,1,
2,3,4,8,7,6,5,2,3,4,5,7,6,5,4,1,2,3,4,5,6,7,8,1,2,3,4,5,6,7,8,
{8}1/5,{16}3,4,,6,{8}5,{16}1-5b[8:1],7,2,8,{4}1-3b[8:1],
8bh[8:1]/1b-5b[8:1],{8}8/1>3b[8:1],{16}7,7h[8:1],{4}1<7b[8:1],{16}7/1-3b[8:1],6,5,4h[8:1],
{4}1-5b[8:1],{8}6/1,7,8/1,{32}8/1,2,{16}3,{8}7/1,{32}1/6,2,{16}3,
{4}5/4b-8b[8:1],{8}5/4-2b[8:1],{16}6,6h[8:1],{4}4<6b[8:1],{8}7/4-2b[8:1],{16}8,8h[8:1],
{4}4-8b[8:1],{16}7/4,,,6bx/1bx,,5bx/4bx,,2bx/1bx,,4bx/7bx,{8}7bx/4bx,
{4}1bh[8:1]/8b-4b[8:1],{8}1/8<6b[8:1],{16}2,2h[8:1],{4}8>2b[8:1],{16}2/8-6b[8:1],3,4,5h[8:1],
{4}8-4b[8:1],{16}3/8,,,3/5,,2/7,,8/1,,6/3,{8}6/3,
{4}4/5b-1b[8:1],{16}2b-5b[8:1],,,8b<4b[4:1],,,,4bx,3bx,2bx,1bx,8bxz4b[8:1],
,,,5bx,5bx<4b[8:3],,,Cf,,,,,,,,,{4}3h[12:5],
{12}5,5,5,{6}6h[12:5],{12},,4,4,
{4}3h[4:1],{12}5,6h[6:1],,{4}3h[4:1],{12}4,5,5,
{4}5bh[8:1]/4b-8b[8:1],{8}5/4>2b[8:1],{16}6,6h[8:1],{4}4-8b[8:1],{8}4/5,5,
2bx/6bx,7bx/8bx,{16}2bx/1bx,2bx/1bx,,3bh[8:3]/8b-6v5b[8:1],,,,,,,,,{4}5bh[8:1]/4b-8b[8:1],
{8}4>2b[8:1],{16}6,6h[8:1],{4}4<6b[8:1],{16}6/4-2b[8:1],7,8,1h[8:1],
{4}4-8b[8:1],{8}7/4,6,5/4,{32}5/4,3,{16}2,{8}6/4,{32}4/7,3,{16}2,
8/1b-5b[16:1],,,2b/1b,,,{8}1b/8b-4b[16:1],{16},8b/7b,,,{8}8b/1b,{16}7bx/2bx,7bx/2bx,
{8}8b/1b,{24}8bx/1bx,7bx/2bx,6bx/3bx,{16}5bx/4bx,4bxqq3b[4:1]/5bxpp8b[16:5],,A5f/D5f/A4f,{4},,{24}3bx,
2,1,8bx,7,6,3bx,2,1,8bx,7,6,3bx,2,1,8bx,7,6,3bx<6b[8:1],2,1,8bx,7,6,
{4}3b-7b[8:1],3b/7b,{8}8b/1b,{16}8b/1b,7b/2b,{8}6b/3b,{16}8bx/1bx,8bx/1bx,
{24}2bx/7bx,3,4,5bx,6,7,2bx,3,4,5bx,6,7,2bx,3,4,5bx,6,7,2bx,3,4,5bx,6,7,
{16}8b-4b[12:1],,,3b-8b[12:1],,,{8}7b-3b[12:1],{16}1b-4b[8:1],,,5b,,7b,{48},,,,,,{24}1bx,
8bx,1bx,8bx,1bx,8bx,2b,3,4,5b,6,7,2b,3,4,5b,6,7,2b,3,4,5b,6,7,
2b/8bx,3,4,5b,6,7,2b/8bx,3,4,5b,6,7,2b/1bx,3,4,5b,6,7,1bx/2b,3,4,5b,6,7,
{16}3,4b/2b,,6,{8}7b/5b,{16}2,3b/1b,,7,{8}8b/6b,{32}1bx-5b[16:1],2,3bx,4,5bx,6,7bx,8,
{16}1b,,,7b-4b[16:1],,,{8}2b,{2}1b-5b[1.125##2.25],
{1}5-1[2:3]*-1[2:3],
{16},,,,,,,,,,,,,,,,6b,
6bx,{24}1bx,2bx,3bx,{16}7b,7bx,{24}2bx,3bx,4bx,{16}8b,8bx,{32},,2bx,1bx,{8}2bx,{32}8bx,1bx,8bx,1bx,
{16}7b,7b,{24}2bx,3bx,4bx,{16}6b,6b,{24}1bx,2bx,3bx,{16}5b,5b,{32}8bx,1bx,2bx,3bx,{4}4bx/Cf,
{24}2b,3,4,5,4,3,2/7,6,5,4,5,6,{32}7b/2b,3,4b,5b,6,8b,7,6b,5,4b,3,2b,,,,,1bw5b[4:3],
2b/8b,3b/7b,4b/6b,{8}5b,
E
