&title=Yes! Party Time!! (GAME VERSION)
&artist=今井麻夏; 春瀬なつみ; 照井春佳; 黒沢ともよ; 久野美咲
&first=-1.08
&des=ltp
&lv_5=13+
&inote_5=(148)
{1},
{8}3bxV51-6V47-3[8:8]/Cf,,,,,,,,,,,,,
4b/6b,2b/5b,4b/7b,B1/B2/E2f/5bV74-8-3[8:5],,,,,,,,
3xh[8:2],4,6h[8:2],5,
2h[8:2],4,7h[8:2],5,
{16}2h[8:1],,4,3h[8:1],,5,5,1h[8:1],,7,2V48[16:3],,6,,8,,
7h[8:1],,5,6h[8:1],,4,4,8h[8:1],,2,7V51[16:3],,3,,4,,
2,,3,3h[8:1],,5,4,6h[8:1],,8,7-3[16:2],,4,,2,,
1,,48,,4<7[8:1]/8>3[8:1],,48,,4/8qq8[8:2],,,,,,,,
{8}3bh[4:3],,5h[32:1],,7,,2,,
{8}7h[4:1],,5-7[8:1],,3/5-1[8:1],,45,,
{32}84,,,,6,,5,,6,,,,17,,,,28,,,,3,,4,,,,6,,5,,,,
{32}28,,,,3,,4,,2,,,,7,,5,,6xh[16:6],,,,1,,1,,,,2,,2,,,,
{8}5bh[4:3]/4,,3h[32:1],,7,,1,,
{8}3h[4:1],,5-7[8:1],,4-8[8:1]/5,,34,,
{32}35,,,,2,,1,,2,,,,35,,,,46,,,,7,,8,,,,2,,1,,,,
{32}35,,,,7,,8,,6,,,,2,,4,,3xh[16:6],,,,8,,8,,,,7,,7,,,,
{8}5<2[4:1],,3,,4>7[4:1],,6,,
{16}5,,6,4,7,5h[16:2],,2v5[32:5]*p6[32:5],,,,,,,,,
{8}8<3[4:1],,2,,1>6[4:1],,7,,
{16}8,8,,,7,7h[16:6],,,4x,5x,4x,5x,,,,,
{8}1h[4:1],,7h[4:1],,5h[4:1],,4<8[4:1],,
{8}43,,5>1[4:1],,56,,8,,
{16}7h[4:1],,,,3h[4:1],,,,5h[4:1],,,,4x-2[8:1],,,,
{4}4/6x-8[8:1],3x-1[8:1]/6,3/5x-7[8:1],35,
{8}8h[4:2]/4h[4:2],,,,,E3/B3/B6/E7,E3/B3/B6/E7,,
{16}2h[4:2]/6h[4:2],,,,,,,,,,7x/1x,2x/6x,3x/5x-7-1-3>5b[2:3],,,,
{8}Cf,,,,,,,,
{8}Ch[4:2],,,,,,,,
{16}1x/2x,,38,,47,,5z1[4:1]/6s2[4:1],56,,,,,,,,,
{16}8x/7x,,61,,52,,4<8[4:1]/3q8[4:1],43,,,,,,,,,
{8}1-5[8:1]/3-5[8:1],,1bx/3bx,,8/7<4[8:1],,3bx/7bx,1-5[8:1],,
1/4bx,6bx,8bxv6-4[8:2],,4,3,1,
{8}2<7[8:1],7,
2>5[16:2],5,
{16}
6xv1[32:2]*<8[32:2],,,
6>8[8:2],,,3,,,,4x,,3,,7-3[8:1],,3>4[16:5],,,5,,,,,
3-1[32:3],,2,,37,,5,5pp8[8:2],,,2,,4-1[8:1],,3,,
4bx-7[8:1]/6x,,,,4bx>6[8:2]/2,,,,4/6bx<4[8:2],,,,5,,,,
{8}7>2[8:1],6,
7<4[16:2],4,
{16}
3xv8[32:2]*>1[32:2],,,
3<1[8:2],,,6,,,,5x,,
6-4[8:1],,7,,1-5[8:1]*>5[8:1],,,1,,,,,
{8}8w4[8:1],,8b,,
{8}1w5[8:1],,1b,,
{8}8<5[8:1]*>3[8:1],,8b,,
{8}1>4[8:1]*<6[8:1],,1b,,
{16}2h[8:1],,8,4h[8:1],,6,1h[8:1],,
5h[8:1],,3,7h[8:1],,4,53,,2-5[8:1]/6-1[8:1],,,,2b>1[8:3]/6b,,,,,,,,,,,,
6-8[8:1],,,3,6,,4,,6-8[8:1],,,2,6,,4,,
3>8[8:1],,4,,5,,6,,3>8[8:1],,4,,5,,6,,
7-4[8:1],,,1,7,,3,,4bxqq4[16:3],,,4bxpp4b[16:3]/6x,,,8bx,,
,,8,,2-5[8:1]/6x-1[8:1],,26,,26,,,,,,,,
2h[8:2]/4h[8:2],,,,,,,,
5h[8:1]/7h[8:1],,,5h[8:1]/7h[8:1],,,
57,,1/8z4[8:1],,,,,,,,
2h[8:1]/4h[8:1],,,2q6[8:1]/4h[8:1],,,,,8bxw4[8:1],,,,
8bx,,,,7bx<4[8:1],3bx/8bx,,
4bx,,,1bx,,3bx,2bx/4,,6bx,5/7bx,,1bxs5[16:3]/8,1/8bxz4[8:1],,,,,,,,,
2h[8:2]/4h[8:2],,,,,,,,5h[8:1]/7h[8:1],,,5h[8:1]/7h[8:1],,,
5-1[8:1]/7-5[8:1],,,,,,,,,,1h[8:1]/5h[8:1],,,1pp1[4:1]/5pp5[4:1],,,,,,,,,,,,,
3h[8:2],,,,5,,,,6-4[8:1],,,,2-5[8:1]/6,,,,7-3[8:1]/2,,,,
1<6[8:1]/7,,,,1>4[8:1],,
4-8[8:1],,1,,6,,7<1[16:3],,4,7,,,8h[8:2],,,,7>2[8:1],,6,,7,,
5-8[8:1]*>8[32:4],,,5,,,,,
{32}8xw4[8:1],7x,6x,5x,4x,3x,2x,1x,8bx,,,,,,,,
1xw5[8:1],2x,3x,4x,5x,6x,7x,8x,1bx,,,,,,,,
{32}8xv5[8:1]*v3[8:1],7x,6x,5x,4x,3x,2x,1x,8bx,,,,,,,,
1xv4[8:1]*v6[8:1],2x,3x,4x,5x,6x,7x,8x,1bx,,,,,,,,
{16}1h[8:1],,5,3h[8:1],,7,5h[8:1],,8h[8:1],,4,6h[8:1],,2,4,,
1b>4[8:1]/5<8[8:1],,,,1s5[8:2]/5b,,,,,,,,,,,,
7<4[8:1],,,2,7,,1,,8>3[8:1],,,5,8,,6,,
6-4[8:1],,4v7[8:1],,3,,1,,
2-4[8:1],,4v1[8:1],,5,,7,,
7<4[8:1],,,1,7,,3qq4[16:5],,4bxxpp4b[16:3],,,4bx,,
,A4f/D4f/D5f,,,,7x,,2-5[8:1]/6x-1[8:1],,26,,26,,,,,,,,
{8}2h[8:8],,1,,7<4[8:1],,7,,
7h[8:4],,8,,2>5[8:1],1,2/6<1[8:1],7,6b/2V41-5[8:3],,7,,7<4[8:1],,7,,
3xh[8:2],4,6h[8:2],5,
2h[8:2],4,7h[8:2],5,
{16}2h[8:1],,4,3h[8:1],,5,5,1h[8:1],,7,2V48[16:3],,6,,8,,
7h[8:1],,5,6h[8:1],,4,4,8h[8:1],,2,7V51[16:3],,3,,4,,
2hb[8:1],,
4,3,7hb[8:1],,5,6,2,4,3,4,
1bx,,1x,,1bx>4[16:2],,1x<6[8:1],,1bx-5[8:1],,1x,,1bxw5[8:1],,
,,,,,,25,25,,,47,47,,,1xw5[8:1]/8x,1x/8x,,B1/B5/Cf,,
