&title=トリックハート
&artist=MIMI feat. 重音テト
&first=-0.03
&des=Dororo
&clock_count=4
&lv_5=13
&inote_5=(150.00)
{1},
{1},
{16}3V16[2:1]/7V52[2:1],,,,,,,,,,,,,,,,
{16}6V83[2:1]/2V47[2:1],,,,,,,,,,,,,,,,
{16}4-1-4[2:1],,,,,,,,,,,,,,,,
{16}8-5[4:1]/5-8[4:1],,,,,,,,,,,,3p6q3[2:1],,,,
{16}5h[2:1],,,,,,,,,,,,3-7[8:1]/5-1[8:1],,,,
{16}3qq4[3:1]/5pp4[3:1],,,,,,,,,,,,6-3-8-5-2[4:3],,,,
{16}4h[4:3],,,,,,,,,,,,,,,,
{16}2-6[8:1]/6-2[8:1],,,,2<5[3:1]/6<3[3:1],,,,,,,,,,,,
{16}3,,3,,4,,5,,2,,2,,3,,4,,
{16}6,,6,,5,,4,,7,,7,,6,,5,,
{16}8qq7[4:1]/4qq3b[4:1],,,,,,,,,,,,45,,,,
{16}7,,2,,5,,8,,7-2[8:1]/3-6[8:1],,,,3b/7b,,,,
{16}3,,3,4,2,,2,,1/5-8[8:1],,2,,3,,4,,
{16}7,,7,8,6,,6,,1-4[8:1]/5-8[8:1],,,,,,,,
{16}3,,3,4,2,,2,,1/5^7[8:1],,2^4[8:1],,,,,,
{16}8h[8:3],,6,,4,,2,,1-5[8:1]/8-4[8:1],,,,1b/8b,,,,
{16}6,,6,5,7,,7,,8/4-1[8:1],,7,,6,,5,,
{16}2,,2,1,3,,3,,8-5[8:1]/4-1[8:1],,,,,,,,
{16}6,,6,5,7,,7,,8/4^2[8:1],,7^5[8:1],,,,,,
{16}1,,1,,28,,28,,3-8[8:1]/7h[4:1],,,,,,,,
{16}1x/6x,,7,8,7,,6,5,6^1[8:1],,2,,3,,4,,
{16}47,,6,5,6,,7,8,7^4[8:1],,3,,2,,1,,
{16}26,,7,1,7V53[4:1],,8,,3V17[4:1],,,,1,,,,
{16}3^6[8:1],,3,,7p2[8:1],,,,1h[4:1],,,,8x,,,,
{16}8b/3b,,2,1,2,,3,4,3^8[8:1],,7,,6,,5,,
{16}5b/2b,,3,4,3,,2,1,2^5[8:1],,6,,7,,8,,
{16}3b/7b,,2,8,2,,1,,2b/6b,,7,1,7,,8,,
{16}2xb/E7/B7/B6,,,8xb/B5/B4/E5/C,,,6xb/B2/B3/E3,,1x-4[8:1]*-6[8:1],,2xb/8xb,,A7f/B7/C/B3/A3,,,,
{16}2x,,2,4,3,,3,,8,,8,5,6,,6,,
{16}2,,2,4,3,,3,,7,1,7,1,2x/6x,,,,
{16}3,,3,1,2,,2,,6,,6,4,7,,7,,
{16}3,,3,1,2,,2,,5w1[8:1],,6,,,,,,
{16}7,,7,5,6,,6,,1,,1,4,3,,3,,
{16}7,,7,5,6,,6,,2,8,2,8,7x/3x,,,,
{16}6,,6,8,7,,7,,3,,{24}2,4,2,{16}4,,3,,
{16}6,,6,8,7,,7,,1^4[8:1]/8^5[8:1],,,,1b/8b,,,,
{16}3xh[4:3]/B7,,,C,,,B2,,,,D4,,E5,,D6,,
{16}2xh[4:3]/B7,,,C,,,B2,,,,D4,,E5,,D6,,
{16}1xh[4:3]/B7,,,C,,,B2,,,,D4,,E5,,D6,,
{16}8xh[4:3]/B7,,,C,,,B2,,,,E4,,E6,,,,
{16}6xh[4:3]/B2,,,C,,,B7,,,,D6,,E5,,D4,,
{16}7xh[4:3]/B2,,,C,,,B7,,,,D6,,E5,,D4,,
{16}8xh[4:3]/B2,,,C,,,B7,,,,D6,,E5,,D4,,
{16}1x/2xh[8:3],,,6h[16:3],,,,,,,17,,2x<5[8:3]/6x,,,,
{16}4,,,4,,,4h[4:1],,,,3,,3x/7x>4[8:3],,,,
{16}5,,,5,,,5h[4:1],,,,6,,6x/2x^5[8:1],,,,
{16}12,,,7,7^4[8:1],,1,,78,,,,8,,5,,
{16}2,,7,,4,,6-3b[8:1]/1,,2-7b[8:1]/5,,,,,,,,
{16}6,,6,5,7-4[8:1],,7,,3-6[8:1],,3,,8,,8,,
{16}2,,2,1,3-1[8:1],,3,,7x-4[8:1]/3x-6[8:1],,,,73,,,,
{16}8^5[8:1]/2,,,3,8,,3,,1^4[8:1]/7,,,6,1,,6,,
{16}7-5[8:1],,3-1[8:1],,7-3[8:1],,3,,7V15[4:1],,,,1b,,,,
{16}3b,,3,4,2-5[8:1],,2,,6-3[8:1],,6,,1,,1,,
{16}7,8,7,8,6^1[8:1],,6,,6x^3[8:1]/2xq7[8:1],,,,62,,,,
{16}8-3[8:1]/5,,,6,8,,7,,1-6[8:1]/4,,,3,1,,2,,
{16}1^4[8:1],,5^8[8:1],,1-5b[8:1],,5,,1w5[8:1],,,,1x,,,,
{16}8x/3x,,2,1,2,,3,4,3qq1[8:1],,7,,6,,5,,
{16}52,,3,4,3,,2,1,2pp4[8:1],,6,,7,,8,,
{16}73,,2,8,2>6[4:1],,1,,6<2[4:1],,,,8,,,,
{16}5-8[8:1],,5,,4-1[8:1],,,,3h[4:1],,,,7x,,,,
{16}1b/6b,,7,8,7,,6,5,6pp8[8:1],,2,,3,,4,,
{16}4b/7b,,6,5,6,,7,8,7qq5[8:1],,3,,2,,1,,
{16}6b/2b,,7,5,6,,1,,7b/3b,,2,4,3,,8,,
{16}7xb/E3/B2/B3,,,1xb/B4/B5/E5/C,,,3xb/B7/B6/E7,,4x-1[8:1]*^6[8:1],,3xb/5xb,,,,,,
{16}1/2h[16:3],,,8,2,,1,,8/3h[16:3],,,1,3,,2,,
{16}3h[4:1],,1,,4h[4:1],,8,,5h[4:1],,1,,6,,5,,
{16}7h[16:3]/8,,,1,7,,8,,26,,4,,37,,5,,
{16}6h[8:1],,4h[8:1],,2h[8:1],,3,2,3,,6,5,6,,8,7,
{16}8b-3-5[16:3],,,5-8[8:1],,,6,,6xV82[16:3],,,2-6[8:1],,,3,,
{16}3x-6-8[16:3],,,8-3[8:1],,,1,,1x,,,,28,,,,
{16}3p6[16:3],,,6^3[8:1],,,8,,8x,,,,17,,2,4,
{16}3,,3,,28,,7,5,6,,6,,4/7pp2[1:2],,28,,
{16},,,,,,,,,,,,,,,,
{16},,,,,,,,,,,,,,,,
{16}E4,,,,,,,,E5,,,,,,,,
{16}E6,,,,,,,,Ch[4:1],,,,,,,,
{16}2/1-4[2:1],,,,2,,,,2,,,,2,,,,
{16}7/8-5b[2:1],,,,7,,,,7,,,,7,,,,
{16}4-8[8:1],,4,,5-7[8:1],,5,,3-1[8:1],,3,,6,,7,,
{16}1x/8x,,2,1,2,,7,8,7,,1,8,2,7,3,6,
{16}4x-1[8:1]/5x-8[8:1],,,,A4/D5f/A5,,,,37,,8,,26,,1,,
{16}7,8,7,8,6^1[8:1],,4,,5-2[8:1]/6,,,,8,,8,,
{16}1-5[8:1]/7,,5,5,1,,6,,8-4[8:1]/2,,4,4,8,,3,,
{16}2-7[8:1],,6-1[8:1],,2,,6,,4w8[8:1],,,,4b,,,,
{16}6b,5,6,5,7-4[8:1],,7,,1-6[8:1],,1,,5,,5,,
{16}2,1,2,1,3^8[8:1],,5,,4-7[8:1]/3,,,,1,,1,,
{16}2^5b[8:1]/8,,7,7h[16:3],2x,,,,28,,7,7h[16:3],{48}2x,D3,A3,D4,A4,D5,{16}A5,,
{16}8,,17,,2q6[8:1]/6p2[8:1],,35,,,,,,1b,,,,
{16}2x,4,3,4,2,,2,1,2,,34,,7,,65,,
{16}2,4,3,4,1,,1,8,1,,25,,8,,47,,
{16}2,4,3,4,2-6[8:1],,7,,8V24[8:1]*V64[8:1],,,,8b,,,,
{16}2xq7b[8:1],,2x,,6^3b[8:1],,,,1b/D6f/A5/D5/A4/D4,,,,2x/8x,,28,,
{16}7b,5,6,5,7,,7,8,7,,65,,2,,34,,
{16}7b,5,6,5,8,,8,1,8,,74,,1,,52,,
{16}7b,4,6,5,8,,8,,2b,5,3,4,1,,1,,
{16}2x/8xb,,,6xb/4x,,,7xbh[4:1]/B5/B4/E5f,,,,8,,3x-7-3[4:1]/6x-1-4[4:1],,,,
{16},,,,,,,,,,,,,,,,
E
