&title=Lapis
&artist=SHIKI
&first=0.014
&des=CupLid
&lv_5=14
&des_5=CupLid
&inote_5=(146)
{16},,,,
,,,,
,,,,
,,,,
{16},,,,
,,,,
,,,,
,,,,
{16}6h[16:2]/5h[16:2],,,6h[16:2]/5h[16:2],
,,5h[16:2]/4h[16:2],,
,5h[16:2]/4h[16:2],,,
3,,2/5,,
{16}4h[16:2]/3h[16:2],,,4h[16:2]/3h[16:2],
,,5h[16:2]/4h[16:2],,
,5h[16:2]/4h[16:2],,,
6,,7/5,,
{16}8h[16:2],,,7h[16:2]/5h[16:2],
,,3h[16:2],,
,6h[16:2]/4h[16:2],,,
5,,5/3,,
{16}1h[16:2],,,2h[16:2]/4h[16:2],
,,6h[16:2],,
,3h[16:2]/5h[16:2],,,
4,,4/6,,
{16}7h[16:2]/5h[16:2],,,8h[16:2]/6h[16:2],
,,7h[16:2]/1h[16:2],,
,2h[16:2]/8h[16:2],,,
3,,1/3,,
{16}2h[16:2]/4h[16:2],,,1h[16:2]/3h[16:2],
,,2h[16:2]/8h[16:2],,
,7h[16:2]/1h[16:2],,,
6,,6/8,,
{16}5h[16:2],,,6h[16:2]/8h[16:2],
,,4h[16:2],,
,3h[16:2]/1h[16:2],,,
4,,5/3,,
{16}4h[16:2],,,3h[16:2]/1h[16:2],
,,5h[16:2],,
,6h[16:2]/8h[16:2],,,
5,,4/6,,
{16}7-4[16:2],,5,,
4,,3,,
2-5[16:2],,4,,
5,,6,,
{16}8-4[16:2],,5,,
4,,3,,
1-5[16:2],,4,,
5,,6,,
{16}7-4[16:2],,7,,
8,,1,,
2-5[16:2],,2,,
1,,8,,
{16}7/5,,6,,
5/3,,6,,
7/4,,3,,
6/4,,7,,
{16}4/8<5[16:2],,,3,
3,,2,,
{24}4/3,,,3,4,3,
{16}4,,2,,
{16}5/1>4[16:2],,,6,
6,,7,,
{24}6/5,,,6,5,6,
{16}5,,7,,
{16}8/4>1[16:2],,,7,
7,,6,,
{24}5/1,,,2,3,4,
{16}5/7,,6,,
{16}3/5<8[16:2],,,2,
2,,3,,
{24}4/8,,,7,6,5,
{16}4/2,,1,,
{16}2/6,,3,4,
3,,5,,
5/2,,3,4,
3,,5,,
{16}3/4<7[16:2],,3,,
2,,1,,
8>3[16:2],,6,,
5-1[16:2],,5,,
{16}4,,3,,
2/1,,3,,
4/7,,6,,
4,,3/6,,
{16}2>5[16:2],,1,,
8,,7,,
6/5,,4,,
5/6>3[16:2],,7,,
{16}8-4[16:2],,,2,
2,,1,,
{24}2/5,,,3,4,3,
{16}4<7[16:2],,2,,
{16}1>4[16:2],,,8,
8,,7,,
{24}7/4,,,6,5,6,
{16}5-1[16:2],,7,,
{16}8<5[16:2],,,2,
2,,3,,
{24}2/5,,,2,3,4,
{16}7/5,,7,,
{16}6/1>4[16:2],,,7,
7,,6,,
{24}7/4,,,7,6,5,
{16}2/4,,2,,
{16}1/5,,3,4,
,2,5,3,
4,,6,5,
,7,4,6,
{16}5h[16:2],,7,8,
,6,5,7,
4h[16:2],,6,5,
7h[16:2],,4,5,
{16}3h[16:2],,6,,
7/4,,6,4,
5,,3,4,
,4,2,,
{16}5/1h[16:2],,4,3,
,5,2,4,
{24}3,,,5,6,7,
{16}8/2,,2,,
{16}3/5,,6,5,
,5,6,4,
{24}7h[16:2],,,2,3,4,
{16}5/8,,7,,
{16}6/4,,3,4,
,4,3,5,
{24}2h[16:2],,,7,6,5,
{16}4/1,,2,,
{16}3/5,,6,5,
6,5,7,4,
6h[16:2],,4,5,
3h[16:2],,6,5,
{16}7h[16:2],,3,,
4/6,,7,,
{32}5/3,,,,2,3,4,5,
6,,,,7,6,5,4,
{16}3h[16:4],,,,
4h[16:4],,,,
5h[16:4],,,,
6h[16:4],,,,
{16}7h[16:6],,,,
,,8h[16:6],,
,,,,
6h[16:4],,,,
{16}1h[16:4],,,,
5h[16:4],,,,
8h[16:8],,,,
,,,,
{16}7h[16:6],,,,
,,6h[16:6],,
,,,,
8h[16:4],,,,
{16}5h[16:8],,,,
,,,,
{24}1,,2,,3,,
5,,6,,7,,
{16}4h[16:6],,,,
,,7h[16:6],,
,,,,
3h[16:4],,,,
{16}5h[16:8],,,,
,,,,
1h[16:8],,,,
,,,,
{16}4h[16:8],,,,
,,,,
2,5,3,6,
1,5,3,7,
{16}2h[16:4],,,,
4h[16:4],,,,
3h[16:4],,,,
5,,5,,
{16}2h[16:6],,,,
4,,5h[16:6],,
,,3,,
4h[16:4],,,,
{16}6h[16:4],,,,
5h[16:4],,,,
8h[16:8],,,,
6,,6,,
{16}5h[16:6],,,,
6,,7h[16:6],,
,,8,,
1h[16:4],,,,
{16}6h[16:8],,,,
,,,,
{24}1,,2,,3,,
5,,6,,7,,
{16}4h[16:6],,,,
5,,6h[16:6],,
,,3,,
2h[16:4],,,,
{16}5h[16:8],,,,
,,,,
1h[16:8],,,,
,,,,
{16}4,,4,,
4/2,,4,,
3,4,2,5,
1,6,8,7,
{16}1,,2,,
3/6h[16:2],,4,,
5/3h[16:2],,6,,
2/7h[16:2],,1,,
{16}6/8h[16:2],,6,,
7/5,,4h[16:2],,
6,,6,,
4/7h[16:2],,3,,
{16}8/2h[16:2],,7,,
3/6h[16:2],,2,,
5/1h[16:2],,6,,
7/2,,3,,
{16}8/4h[16:2],,7,,
6/3,,5h[16:2],,
3,,2,,
5/1h[16:2],,6,,
{16}3/7h[16:2],,4,,
5/6,,7,,
{48}8h[24:2],,,,5h[24:1],,,,,6h[16:1],,,
{24}2h[24:2],,4h[24:1],,3h[24:2],,
{16}7,,6,,
5/3,,2h[16:2],,
4,,5,,
4/6h[16:2],,3,,
{16}5/2h[16:2],,5,,
6/4,,7,,
3/8h[16:2],,3,,
2/7,,6,,
{16}5/3,,5/3,,
6/2,,6/2,,
7,3,5,2,
8,4,6,2,
{16}8-4[16:2],,,,
8b,,,,
,,,,
,,,,
{16},,,,
4,,,,
,,,,
6,,,,
{16}5,,,,
4,,,,
,,,,
,,,,
{16},,,,
3,,,,
,,,,
,,,,
{16}7,,5,,
3,,,,
,,,,
,,,,
{16},,,,
2,,,,
,,,,
8,,,,
{16}7,,,,
6,,,,
,,,,
3,,,,
{16}2,,,,
{24}1,,,2,3,4,
5/7,,,7,6,5,
{32}4/2,,,,1,2/8,3/7,4/6,
{16}5-1[16:2],,,,
6/5,,7,7,
8>3[16:2],,6,,
8/5,,4,4,
{16}3-8[16:2],,5,,
6/3,,7,7,
1-5[16:2],,2,,
3/1>4[16:2],,,,
{16}7/1<6[16:2],,,,
1/3,,4,4,
5-1[16:2],,3,,
2/5,,3,3,
{16}8<5[16:2],,4,,
5/8,,4,,
3/5,,2,,
5/1>4[16:2],,,,
{16}1/4-8[16:2],,5,,
6-3[16:2],,,1,
1>4[16:2],,2,,
{24}5/1,,,5,6,7,
{16}8/5,,4,,
7/3-6[16:2],,,8,
8<5[16:2],,7,,
{24}4/8,,,4,3,2,
{16}1/4-8[16:2],,,,
2/4>1[16:2],,3,,
6/4<7[16:2],,5,,
4/2-6[16:2],,1,,
{16}2/8,,8,,
{24}7/4,,,7/4,6/3,5/2,
4/1,,,2/5,6/3,7/4,
8/5,,,7/4,6/3,5/2,
{32}4/1-5[16:2],8,7,6,5,4,3,2,
{16}1/8b,,,,
