&title=生命缐
&artist=ReoNa
&first=0.94
&des=Kafey
&lv_5=13+
&inote_5=(170)
{4}
1>1[4:14],,,,1p3[4:2],,,
{16}
,,2,3,4q5[4:2],,,,
{4}
,,,6>1[4:2],,,,8<8[4:14]*q1[4:2],,,,8q5[4:2],,,
{16}
,,7,6p4[4:2],5,,,,,,,,,,,,,,3,4<8[16:9],5,,,,
{4}
,,,
{8}
,2,2,4,3h[4:1],,5,3h[4:1],,4h[4:1],,5,6-8[8:1],6,3h[8:3],,,7,7,5,6h[4:1],,4,6h[4:1],,5h[4:1],,4,3,3,6>8[4:3],4h[4:3],6,,,,,,5>7[4:3],3h[4:3],,,,,,,2qq5[8:5],6h[8:7],,,,,,,,5pp2[8:5],7h[4:3],,,,,,,,
,6-2[8:1],7,6,8h[4:1],,4,6h[4:1]/5-2[8:1],,5,,4,3v6[8:1],4,5h[8:3]/3,,,2-6[8:1],4,2,5h[4:1],,4,3h[4:1]/4v7[8:1],,4,,5,5>5[8:5],3q5[8:4],3h[8:1],,,,,,,6p8[8:4],4q2[8:3],4h[8:1],,,,,,,8,2h[8:7],1,1,8,8,7,7,6>8[4:2],6,
{16}7,,7,,5,6,7h[8:1],,,,,,
{8}
8-5[8:1]/1v4[8:1],7/2,8b/1b,,,
{16}
3,4,{8}
2>5[8:1],,6v1[8:1],7,
{16}
6b,,,4,4,,7,,
{8}
6/2,,1v4[8:1]/5-8[8:1],8/4,1b/5b,,,
{16}
6,5,{8}
7<4[8:1],,3v8[8:1],2,
{16}
3b,,,5,5,,2,,
{8}
3/7,,4>2[16:1]/5<7[16:1],4/5,,,
{16}
1b,8,1,8,
{8}
1v6[8:1],,8v3[8:1],7,
{16}
8b,,,2,2-7[8:1]*-5[8:1],,1,,
{8}
2,,6-2[8:1],5/7,6b/8-4[8:1],,,
{16}
1,2,3V51[4:1],,,,3/5,,,,6b,,,8h[16:3],,,4h[8:3],,
{8}
,,5>1[8:3],5/6p4[8:3],,,,,,,1<5[8:3],1/2qq5[8:3],,,,,,,5>2[4:1],5,2<7[4:1],,7<4[4:1],,4>1[4:1],,1pp4[4:2],8qq5[8:3],,,,,,,
5,4,3-7[8:1],3,2-6[8:1],2,1-5[8:1],1,8-4[8:1],8,7-3[8:1],7,6-2[8:1],6,5-1[8:1],5,4-8[8:1],4,3,2,1h[8:1],,
{16}
1,2,3,4/5,6,7,
{8}
8h[4:1],
,2,1-5[8:1],8,8-4[8:1]/1,7,8b<1[4:2],,8b/5h[4:1],,,,4-8[8:1],,3s7[4:1],3,,,,2,8-4[8:1]/3-1[8:1],,8-3[8:1],,8b,5<8[8:1]*>1[8:1],5,,,,3-6[8:1]/6>3[8:1],3/6,,,,
2-6[8:1],8-4[8:1],2>5[8:1],8<5[8:1],2,8b,3,3V15[4:1],,5-2[8:1],,8p6[4:1],8,,,,3-8[8:1],7-5[8:1],3,7-3[8:1],,6<1[8:1],,6,4V26[4:1],,4,5h[8:3],,,
7-4[8:1],8,7/1-4[8:1],8,1,8<4[4:1],,8b/4bq5[8:3]*>8[4:1],4h[8:1],,,,,1h[8:3],8<5[8:1],,8>3[8:1],,8v5[8:1],7,8,2,1,5p4[4:1]/3,,4>5[16:5],3h[4:1],,,{16}
4,,4,,3b,2,1,,8b,7,6,,4b,5,3,6,2-6[8:1]/7,,
{8}
,2/8v3[8:1]*v5[8:1],7,8,,,4v7[8:1]*v1[8:1],5/3,4,,
{16}
8b,8b,8b-5[8:1]*-6[8:1],,,,
{8}
8-2[8:1]*-3[8:1],,8-4[8:1],,8/2,2-6[8:1],3,4,5h[8:1],4,
{16}
4,3,2-5[8:1],,5>1[8:1],6,7/2,,8-4[8:1],,8,7,
{8}
6h[4:1],,5<8[8:1],,3bq8[4:1],,1,1>8[8:3],,,1,1q8[4:1],,,,,
{4}
1bw5[4:3],,,,,5-1[4:1]*-1[4:1],,
{16}
,,6,7,
{8}
8b>8[1:9],,,,6h[8:1],,7h[8:1],,6h[8:1],,6h[8:1],,5h[8:1],,6h[8:1],,5h[8:1],,5h[8:1],,4h[8:1],,5h[8:1],,4h[8:1],,4h[8:1],,1h[8:1],,2h[8:1],,1h[8:1],,1h[8:1],,3h[4:1],,,,2h[4:1],,,,3h[4:1],,,,3h[4:1],,,,2,,,,1,,,,,
{64},,,2,
{4},,,
{64}
,,1>8[32:17]*>8[32:17],,
{4},,,,
E
