&title=天真爛漫高襟姫
&artist=かぴたろう/初音ミク
&first=0
&des=AsukaHana
&wholebpm=170
&MusicStart=52
&MusicEnd=65
&lv_5=14
&inote_5=
(170)
{1},
{16}
25,,3,4,3h[8:1],,
6h[4:1],,,,3-1[8:1],,,,36,,8,,2,1,2h[8:1],,
7h[4:1],,,,3-1[8:1],,,,34,,6,,8,7,8h[8:3],,
4h[8:4],,,,,,,,,,15,,26,,37,,48,,15,,26,,3^6[8:1]*<1[8:2]/7,,4/8h[8:3],,,,,,,,,,
1b/8b,,2,4,3-8[8:1],,3h[4:1],,,,,,65,,7,,
3b/4b,,7,5,6-1[8:1],,6h[4:1],,,,,,35,,2,,
4b/6b,,1V75[4:1],8,2,,1,,,,3,,24,,6,,
5/7^4[8:1],,68,,1,,1,,2^5[8:1],,14,,7,,7,,
6b-1[8:1],,4-8[8:1],4,6,,4,,,,7,,16,,2,,
4/3b-8[8:1],,5-1[8:1],5,3,,5,,,,2,,83,,7,,
5/6b-1[8:1],,3-6[8:1],3,6,,3,,
8h[8:1],,7h[8:1],,6h[8:1],,5h[8:1],,4,,4-1[8:1]*-7[8:1],,26,,,,,,8b,,8b,,,,
3^8[16:3],,8,8V24[4:1],3,,6,6,,,5-1[8:1],6,7<7[2:1],,5,,7,,,,7<3[4:1],,,,3>7[4:1],,,,7,,,,2h[4:1],,,,8-4[8:1],,4-8[8:1],,8^5[8:1],,3,,2,,1,,8-4[8:1],,4-8[8:1],,8V62[4:1],,5,,5h[4:1],,,,,,,,
6^1[16:3],,1,1V75[4:1],6,,3,3,,,4-8[8:1],3,2>2[2:1],,4,,2,,,,2>6[4:1],,,,6<2[4:1],,,,2,,,,7,,7,,1-5[8:1],,5-1[8:1],,1^4[8:1],,6,,7,,8,,1-5[8:1],,5-1[8:1],,1V37[4:1],,4,,4h[4:1],,,,,,,,
3-8[16:3],,8,8V25[4:1],3,,6,6,,,6-2[8:1],7,8<8[2:1],,6,,8,,,,8>4[4:1],,,,4<8[4:1],,,,8,,,,2h[4:1],,,,5q1[8:1],,1q5[8:1],,5^8[8:1],,2,,3,,4,,5q1[8:1],,1q5[8:1],,5q3[4:1],,8,,8h[4:1],,,,,,,,
6-1[16:3],,1,1V74[4:1],6,,3,3,,,3-7[8:1],2,1>1[2:1],,3,,1,,,,1<5[4:1],,,,5>1[4:1],,,,1,,,,7,,7,,4p8[8:1],,8p4[8:1],,4^1[8:1],,7,,6,,5,,4p8[8:1],,8p4[8:1],,4p6[4:1],,1,,1h[4:1],,,,,,
7,2>5[8:1],8,,,2,6-1[8:1],,,4^1[8:1],6,,,4,8-3[8:1],,7h[16:5],,8-5[8:1],,,2,8z4[4:1],,1,,6h[4:1],,,,,,
2,7<4[8:1],1,,,7,3-8[8:1],,,5^8[8:1],3,,,5,1-6[8:1],,2h[16:5],,1-4[8:1],,,7,1s5[4:1],,8,,3h[4:1],,,,,,
7,2>5[8:1],8,,,2,6-1[8:1],,,4^1[8:1],6,,,4,7,,7h[16:5],,8-4[8:1],,,3,8w4[8:1],,2,,8,,,,
35,,35,,78,,5,,31,,2,,4-7[8:1]/7,,1,,34,,2,,1V38[4:1]/8V61[4:1],,,,1^4[8:1]/8^5[8:1],,,,,,,,
7b,,7b,,1,6,8,7,1-3[8:1],6,8-4[8:1],7,1-5[8:1],,8-6[8:1],,1,,8,,3-7[8:1],,7-3[8:1],,3V14[4:1],,8V61[4:1],,,,8,,,,,,
8,3,1,2,8-6[8:1],3,1-5[8:1],2,8-4[8:1],,1-3[8:1],,8,,1,,6b-2[8:1],,2b-6[8:1],,6bV85[4:1],,1bV38[4:1],,,,1,,,,6,,
16,,8,8,7-5[8:1],,8-4[8:1],8,7-3[8:1],,8-2[8:1],,7,,8,,4V26[4:1],,5,,4/6-1[8:1],,7,,8-4[8:1],,8,,
,,2,,25,,4,4,3-1[8:1],,4-8[8:1],4,3-7[8:1],,4-6[8:1],,3,,4,,1,,3^8[8:1]/7^4[8:1],,8,,3qq8[8:9]/7qq4[8:9],,
{2},,,
{16}1h[16:3],,,6h[24:19],,,{12}2,,3,{16},4,,{12}5pp1[16:19],5,5h[48:31],{16},,,,,,,,,,,,,,,3,,3,,3,,3,,38,,3,,37,,3,,3pp2[16:16]/6h[16:16],,,,,,,,,,,,,,,,,,,,8h[4:1],,,,7h[4:1],,,,6h[4:1],,,,4,,,,36,,3,,72,,7,,18,,1,,7<3[4:1]/2,,8,,3pp6[8:3]/7,,3,,2,,1b,,1b,,1b,,
8/7h[4:1],,1-6[8:1],2,3h[8:1],,1>4[8:1],,2,,5-2[8:1],6,7h[8:1],,5^8[8:1],,
6,,1-6[8:1],2,3h[8:1],,1>4[8:1],,2,,5-1[8:1],6,7h[8:1],,5^8[8:1],,
6,,1-6[8:1],2,3h[8:1],,1^4[8:1],,2,,5,6,7,,47,,7^4[8:1],8,7,8,7,,3,,6,5,7,4,8,3,1,2,
8V61[4:1],,2/6h[8:1],1,8,,5,,4V63[4:1],,2/6h[8:1],3,4,,7,,8V63[4:1],,2/6h[8:1],1,8,,5,,4V61[4:1],,2/6h[8:1],3,4,,7,,8V61[4:1],,2/6h[8:1],1,8,,5,,4V63[4:1],,2/6h[8:1],3,4,,7,,8,,25,,46,,78,,2,1,3,8,4,7,5,6,4V61[4:1],,2h[8:5]/5,,,,,,,,,,,,,,8V25[4:1],,1/6h[8:5],,,,,,,,,,,,,,3<8[4:1],,1h[8:5]/4,,,,,,,,,,,,,,7>4[4:1],,5h[8:5]/8,,,,,,,,,,,,,,3^8[8:1]/8-4[8:1],,7,,8v3[8:1]/3,,,,5v2[8:1]/8^5[8:1],,6,,8-3[8:1]/5,,,,85,,6,,3^8[8:1]/7^4[8:1],,2,,37,,,,23,,23,,68,,2,,3/4-8[8:1],,5,,3>7[4:1]/4,,2,,34,,,,5-1[8:1],,1-5[8:1],,5qq4[8:3]*pp1[2:1],,,,,,,,,,,,,,
5<4[2:3],,,,,,,,,,,,5h[1:1],{1},,{2},{16},,,5b/4b,,2b/7b,,1b/8b,,
2,7,8,5,2^4[8:1],7,8-4[8:1],5,2-6[8:1],,8^6[8:1],,2qq7[8:3],,8,,2b,,7b>3[4:1],,6b,,5b-1[8:1],,,,5,,,,
2,,83,,7,7,2-4[8:1],,7-5[8:1],7,2-5[8:1],,7-4[8:1],,2-7[8:1],,7-3[8:1],,2,,5-1[8:1],,6,,75,,8w4[8:1],,8,,,,,,16,,2,2,7-5[8:1],,2-4[8:1],2,7-4[8:1],,2-5[8:1],,7,,2,,6,,8^5[8:1]/4^1[8:1],,3,,48,,,,8h[8:3]/4h[8:2],,,,,,
7,8,7,8,5,4,5,4,1,2,1,2,5,4,5,4,6,,{8}87,12,43,71,56,82,34,8/1h[8:3],6,4,2,8h[8:3]/1,3,5,7,1b/8b,1b-5[8:1]/8b-4[8:1],6b/3b,1b/8b,,,,
3-5[8:1],8-4[8:1],3-1[8:1],8V62[4:1],3v5[8:1],,,,14,38,2-5[8:1]/7V52[4:1],18,2<6[4:1]/7,,,,8b,1b/7b,2b/6b,3b/5b,4bpp1[8:37],,4h[8:35],,,{1},,,,,8b-4[8:1],,,,E,
