&title=ルカルカ★ナイトフィーバー
&artist=samfree
&first=0
&des=Oasizanima
&des_5=Oasizanima
&lv_5=13.8
&inote_5=(160){4},{8},,,,,,,,,,,,,8h[4:1]/2h[4:1],
,,7/1,8/2,{4}7-3[8:1]/1-5[8:1],7b/1b,
{8}2-6[8:1],4,2,{16}7,8h[16:5],,,{8}4,3,2,
{16}7,1,7,1,5,3,5,3,8,1,7,2,6,3,5,4,
{8}7-3[8:1],5,7,{16}1,2h[16:5],,,,,{8}6,7,
8/1,8/1,{24}2,3,4,8,7,6,{4}5/1s5[8:1],1,
{8}7-3[8:1],5,7,{16}2,1h[16:5],,,{8}5,6,7,
{16}2,8,2,8,4,6,4,6,1,8,2,7,3,6,4,5,
{8}2-6[8:1],4,2,{16}8,7h[16:5],,,,,{8}3,2,
1/8,1/8,{24}7,6,5,1,2,3,{4}4/8bw4[8:1],8b,
{8},7-4[8:1],3,7,1-5[8:1],6,1,8-4[8:1],
2,8,{4}2pp5[8:3],8-5[8:1],8,
{8},3-5[8:1],6,3,7-4[8:1],2,7,1-5[8:1],
7,1,{4}8qq5[8:3],2-5[8:1],2,
{8},6-2[8:1],4,6,3-8[8:1],5,3,7-3[8:1],
2,7,{4}1-6[8:1]*-4[8:1],1,{8}7<4[4:1],7,
{4}4>1[4:1],1<6[4:1],5,{8}3,3h[8:1],
,5,{4}5-2[8:1]/4>2[8:1],5b<7[8:1]/4b-7[8:1],5b/4b,
{8},1-5[8:1],6,1,7-4[8:1],2,7,3-7[8:1],
6,3,{4}8qq5[8:3],2-5[8:1],2,
{8},7-1[8:1],4,7,2-5[8:1],6,2,8-4[8:1],
2,8,{4}1pp4[8:3],7-4[8:1],7,
{8},3-7[8:1],5,3,6-1[8:1],4,6,2-6[8:1],
7,2,{4}8-3[8:1]*-5[8:1],8,{8}2>5[4:1],2,
{4}5-1[4:1],1-6[4:1],7,{8}5,5,
,4/5,{32}4,5,6,7,8,1,2,3,{4}4bv1[8:1]/8bv5[8:1],8b/4b,
{8}6h[4:1],8,5h[4:1],2,{4}4h[4:1],1b,
{8}3h[4:1],1,4h[4:1],7,{4}5h[4:1],8b,
{8}6/2-6[8:1],5/3,{4}2b,{8}5-1[8:1],4/6,{4}5b,
{8}2/4-7[8:1],3,{4}4b/5b-1[8:1],5b/8b-3[8:1],8b/4b>8[8:5],
{8}4h[2:1],,,,,,,6h[8:5],
,,{4}3h[4:1],{8},,7,8-4[8:1],
1-5[8:1],8,1,7-4[8:1],2-5[8:1],7,2,1h[4:1],
,5b,4b/8b,3b/7b,{4}6b/2bw6[8:1]*-6[8:1],2b,
4/3V16[8:1],3,7v4[8:1]/8-3[8:1],8/7,
{8}6-8[8:1],8-4[8:1],{4}4-2[8:1],1s5[8:1],1,
8p4[4:1],4p7[4:1],7p3[4:1],3,
{8}1-5[8:1],2,1/6-2[8:1],7,6/3-1[8:1],4,3/8p4[8:1],7,
8,3,2,1,8<2[2:1],7h[8:3],,,,,,,{4}6-3[8:1]/1-4[8:1],
6/1,
8h[4:1],2h[4:1],6h[4:1],{8}3,4qq2[8:1]/5pp7[8:1],
,4/5,,5/4,{32}4b/5h[16:1],3,{16}2,{32},,,,5b/4h[16:1],6,{16}7,,,{4}2/8V63[8:1],
8,4v1[8:1]/5-8[8:1],5/4,
{8}2-4[8:1],4-8[8:1],{4}8-6[8:1],1z5[8:1],1,
1>5[4:1],5<1[4:1],1q5[4:1],5,
{8}7-4[8:1],6,7/2-6[8:1],1,2/8V64[8:1],1v3[8:1],8,1,
,5,4,3,2<4[2:1],1h[8:3],,,,,,,{4}2-5[8:1]/7-4[8:1],
2/7,
7-2[2:1],7h[4:1],{8},,6,3b/4b,
,6b/5b,7b/4b,4b/3b,{4}2b/5bw1[8:1]*-1[8:1],5b,
{8}7-3[8:1],4/8,7,{16}2,1h[16:7],,,{8}5,6,7,
{16}2,8,4,6,1,7,3,5,2,7,3,5,1,8,4,6,
{8}3v8[8:1],5/2,3,{16}6,5h[16:5],,,,,{8}2,3,
4/5,4/5,{24}4-8[8:1],3,2,6,7,8,{4}4qq2[8:1]*pp6[8:1],4,
{8}8-4[8:1],3/7,8,{16}2,1h[16:5],,,{8}5,6,7,
{16}2,5,3,7,1,6,4,8,2,6,4,8,1,5,3,7,
{8}2v5[8:1],3/8,2,{16}7,8h[16:5],,,{8}4,3,2,
{32}8,7,6,5,4,3,2,1,8/4,5,6,7,8,1,2,3,{4}4bv1[8:1]/8b-5[8:1],4b/8b,
{16}2,6,4,8,1,5,3,7,2,6,7/3,6/2,1/5,8/4,{8}3b/7b,
,6b/4b,2b/5b,8b/4b,{4}6b-3[8:1]/2b-7[8:1],2bV48[1:3]/6bV84[1:3],
E
&inote_6=(160)
E
&inote_7=(160)
E
