&title=スノーマン-ReRec-
&artist=halyosy
&first=0.01
&des=合作だよ
&lv_5=13+
&inote_5=(127){4},,,,
{32}5x,6x,{16}7hx[8:1],,6h[16:3],,,5,,2h[16:3],,,3h[16:3],,,4,,
7h[16:3],,,6h[16:3],,,5p4[8:3],,4,,,,,,,,
3<6[16:4],,,,,,,,8h[8:1],,{24}1,8,1,{16}27,,,,
5b/4b,,6,7b/5b,,3,4b/2b,,1h[8:1],,{32}7,6,{16}5,3,4,3,,
6V47[32:7],6,,4,,,8,,3V51[32:7],3,,5,,,1,,7-4-8[32:8],7,,4,,,1,,2pp5[32:9],,6,,7,,,,
8-4[32:4],8,,4,,,2,,1-5[32:4],1,,5,,,7-4[8:1],,
8,,1,,2-5[8:1],,1,,8b>3[8:1],,,,5bpp4[8:4],,,,4b,,,,,,3,,2h[16:3],,,{32}7,6,{16}5,3,4,,
2b-7[32:3],,,,2b/6b-3[32:3],,,,8b-4[32:4]/6b,,,,8b/5b,,,,
2h[8:1]/6b,,4>1[8:1],3,,5,4,,7h[8:1],,5<8[8:1],6,,4,5,,
2h[8:1],,4>1[8:1],3,,5,4,,7h[8:1],,8x,7x,8x,,16,,
2h[8:1],,4-1[8:1],3,,5,4,,7h[8:1],,5-8[8:1],6,,4,5,,
3h[8:1],,1-4[8:1],2,,8,1,,7h[8:2],,{24}6,5,4,{16}3hb[8:2],,,,
7hb[8:1],,5<8[8:1],6,,4,5,,2h[8:1],,4>1[8:1],3,,5,4,,
7h[8:1],,5<8[8:1],6,,4,5,,2h[8:1],,1x,2x,1x,,83,,
7h[8:1],,5-8[8:1],6,,4,5,,2h[8:1],,4-1[8:1],3,,5,4,,
6h[8:1],,8-4[8:1],7,,1,8,,2q6[8:1],6,3,5,2b,,,,
{16}7h[8:2]/8,,,,5,,6^4[8:1],,5/7,,,,,,3,4,
{16}3h[16:3],,,4h[16:3],,,5p3[16:5],,46,,,,,,,,
{16}8h[8:2],,,,7,,6^4[8:1],,5/7,,,,,,2,4,
{16}2h[16:3],,,4h[16:3],,,5pp5[16:4],,4>2[8:1]/6,,,,,,,,
{16}2h[8:2],,,,4,,3^5[8:1],,4/2,,,,,,6,5,
{16}6h[8:1],,4,5h[8:1],,3,4q6[16:5],,53,,,,,,,,
{16}1h[8:2],,,,2,,3^5[8:1],,4/2,,,,,,7,5,
{16}7h[8:1],,5,6h[8:1],,4,5h[8:1],,3,,26,,E3,E4,E6,E7,
{16}1-4[16:8],,,,,,,,C1,,,,,,,,
{16}8-5[16:8],,,,E5,,,,C1,,,,,,,,
{16}1>5[16:8],,,,,,,,C1,,,,,,,,
{16}6p4[16:6],,,,,,,,3qq4[16:5],,,,,,,,
{16}5b,,6,7b/5b,,3,4b/2b,,1h[8:1],,{32}7,6,{16}5,3,4,3,,
{16}2,2,4^1[48:5],3,,5,4,,6,6,4^7[48:5],5,,3,4,,
{16}2,2,5-1[48:5],4,,6,5,,7-4-6-8[4:1],,6,5,7,,,,
{16}3,3,1-5[48:5],2,,8,1,,6,6,8-4[48:5],7,,1,8,,
{16}3,,2v5[48:5],8,1-6[48:5],,2,,1b^4b[12:1],,,,{48}1b/D5f,D6,D7,D8,,,,,,,,,
{16}8,8,5-8[48:5],6,,4,5,,3,3,5-2[48:5],4,,6,5,,
{16}7,7,4^7[48:5],5,,3,4,,2pp5[4:1],,3,4,2,,,,
{16}6,6,8^5[48:5],7,,1,8,,3,3,1^4[48:5],2,,8,1,,
{16}6,6,1,8,2,2,5,4,3b-7[48:5]/7b-4[48:5],,,,3b/7b>5[16:5],,,,
{16}C1f,,,,,,7,7,5,,26,,3,3,1,2,
{16}8b-3b[48:5],,,,6b^1b[48:5]/8,,,,4bw8b[48:5]/6,,,,4b,,,,
{16}2h[8:1]/6h[8:1],,,1h[8:1]/8h[8:1],,,3h[8:1]/5h[8:1],,,5h[8:1]/7h[8:1],,,4-8[48:5]/6,,35,,
{16}2b/4b,,,2,2h[16:2],,1,2h[8:1],,1,2,2,5,4,7,7,
{32}E2,E3,E4,,{16}6,1,{16},1,{32}E7,E6,E5,,{16}3,7,,7,1pp8[16:5],,4,4,
{16}1,,,5,,7,7,,{32}1h[8:1],,,,B6,B5,B4,,{12}1x,8x/2x,7x/3x,
{16}6x/4x,,,2h[16:2]/4,,3x,{24}E4,B5,E7,{16}1-6[8:1]*-4[8:1],,,,1,,,,
{16}2bx/6bx,,8h[8:1],,4,8,3,8,5,8,2,8,6,8,1bx,,
{20}7x,1,6x,1,5x,2,6x,2,5x,3,{16}4x,3,5x,4,4xh[8:1],,3x,,
{16}2xh[8:1]/5xh[8:1],,,,2,2-5[32:3],8,1,7-4[32:3],2bx,,,7bx,,3,,
{16}2/4h[8:1],,3,2/5h[8:1],,4,6h[8:1]/3,,5,4/7h[8:1],,8,8,6,3,4,
{16}1bV35[8:2],,,,,,4,,6h[16:3],,,7h[16:3],,,8,,
{16}2V48[8:2]/8,,,,,,7,6,5pp6[32:7],,5,,1,,2,,
{16}3V57b[8:2],,,,,,6V83[8:2],,8-4[8:1],,,,,,,,
{16}3x/5,,,5/7x,,,1/7x,,2-6[8:1]/8-4[8:1],,,,28,,,,
{16}7,1,7,1,5,4,5,4,6h[16:3],,5-1[8:1],5,,,4,,
{16}2,,2,8,5,6,4,5,3h[16:3],,4pp5[16:3],4,,,3,,
{16}3V14[8:2],,,,4,,4,,6b,,,7/8b,,,1b/2h[8:1],,
{16}4x,3,5,4hx[8:1],,8,8b,,5x,6,3,4hx[8:1],,1,1b,,
{48}8bx,7x,6x,{32}4,,5,,{48}1bx,2x,3x,{32}5,,4,,8,,1,,Cf,,,,,,,,,,,,,,,,
{16}2^5[2:1],,,,,,,,B4/B3,,,,,,,,
{16}1v6[2:1],,,,,,,,B7/B8,,,,,,,,
{16}7^4[2:1],,8xh[8:1],,,,1xh[8:1],,,,2xh[8:1],,,,,,
{16}8q1[8:4],,,,,,3x,,4bxq5b[8:4],,,,,,,,
{16}7<3[2:1],,,,,,1,,E2/B2/E3,,,,,,2,,
{16}2/4<8[2:1],,,3,,,3,,E4/B4/E5,,,,,,,,
{16}7/2q7[2:1],,,,,,,,C,,,,,,,,
{16}8/6^3b[2:1],,,,,,,,8qq5[16:10],,,,,,,,
{16}2bx^5b[8:1],,,,,,,,{24}6bx,4bx,6bx,4bx,6bx,4bx,5hbx[8:1],,,{16}1,1,
{16}7,7,5^8[48:5],6,,4,5,,2,2,5^2[48:5],4,,6,5,,
{16}8,8,4-8[48:5],6,,2,4,,1-3-5-7[48:10],1,8,2,1,,,,
{16}3,3,8-4[48:5],1,,7,8,,6,6,1-5[48:5],8,,2,1,,
{16}2,2,4,3,8-4[48:5],8,5,6,8b^5b[12:1],,,,{48}8b/D5f,D4,D3,D2,,,{16},,
{16}1,1,4-1[48:5],3,,5,4,,7,7,4-7[48:5],5,,3,4,,
{16}1,1,5^2[48:5],3,,7,5,,8pp3[4:1],8,1,7,8,,,,
{16}6,6,1^6[48:5],8,,2,1,,3,3,8^3[48:5],1,,7,8,,
{16}6,6,5,7,2,2,1,3,{32}8xb,7,6,5,4,3,2,1,8xbpp4b[16:5]/3xb,4,5,6,7,8,1,2,
{16}3xb/8xb,,,,,,2,2,5,,73,,6,6,1,8,
{16}2b-6b[48:5],,,,4b^1b[48:5]*^7b[48:5]/2,,,,4bw8b[48:5],,,,4b,,,,
2hb[8:1]/6b,,4>1[8:1],3,,5,4,,7h[8:1],,5<8[8:1],6,,4,5,,
2h[8:1],,4>1[8:1],3,,5,4,,7bpp4b[8:2],,{24}1,2,3,{16}4,,,,
2hb[8:1],,4-1[8:1],3,,5,4,,7h[8:1],,5-8[8:1],6,,4,5,,
3h[8:1],,1-4[8:1],2,,8,1,,7hb[8:2],,{24}5,4,3,2hb[8:2],,,4,5,6,
{16}7hb[8:1],,5<8[8:1],6,,4,5,,2h[8:1],,4>1[8:1],3,,5,4,,
7h[8:1],,5<8[8:1],6,,4,5,,2bqq5b[8:2],,{24}8,7,6,{16}5,,,,
7hb[8:1],,5-8[8:1],6,,4,5,,2h[8:1],,4-1[8:1],3,,5,4,,
6h[8:1],,8,7/1,,4,53,,
1h[32:8],,{48}8,7,6,5,4,3,2b,,,,,,,E
