&title=けものになりたい!
&artist=嗷天
&first=0
&des=柠檬红茶
&clock_count=4
&lv_5=13+
&inote_5=(186)
{1}
,
{1}
7xp4[4:3],
{8}
A2/E3,,A7/E7,,A1,A8,B2,B7,
{8}
3hbx[1:2],,E7,B6,,,B7/B8,,,,E7,B6,,,B7/B8,,
{8}
6hbx[1:2],,E3,B3,,,B2/B1,,,,E3,B3,,,B2/B1,,
{4}
3hbx[2:1],4,5h[4:1],4,6hbx[2:1],5,4h[4:1],5,
{8}
7hb[8:3],d,8,8,2hb[8:3],,1,1,
{4}
8-4[8:1]b,
{16}
8-3[8:1]*-5[8:1],Cf,,,
{4}
8,,
{8}
6h[4:1],,4,4,5h[4:1],,3,,
{4}
4/5,4/5,A7/E7/A2/E3,D1f/E1/B1/B8,
{8}
2h[4:1],,5,5,7h[4:1],,3,,
{4}
3/6,3/6,4-1[12:1]/5-8[12:1],
{16}
4/5,Cf,,,
{8}
7h[4:1],,1,1,6h[4:1],,4,,
{4}
2/7,2/7-5[8:1]v4[8:1]-2[8:1],1,1,
{8}
1b-6[12:1]/2b-5[12:1],3/8,1/2,,8b-3[12:1]/7b-4[12:1],6/1,8/7,,
{4}
5hb[8:1]/6hb[8:1],3hb[8:1]/4hb[8:1],4bqq5[16:5]/5bpp4[16:5],,,
{4}
1>5[4:1],5<1[4:1],1,5<1[4:1],1>5[4:1],5-1[12:1]*-7[12:1]b,,
{4}
1x-7[8:1]-3[8:1]-5[8:1],8-4[8:1],,
{8}
,
{4}
3hbx[4:1]/B7f/B6,6hbx[4:1]/B2f/B3,2hbx[4:1]/B8f/B7,
{8}
7,1/8,1/8,
{4}
2-7[12:1],6-2[12:1],
{8}
4w8[12:1]b,4,,,
{4}
7-3[12:1],1-4[12:1],
{8}
5w1[12:1]b,5,,,
{4}
2/5,3/6,4/7,5-7[16:3]-4[16:3]-8[16:3]/8,
{8}
2,2,2,2,2>5[4:1],,,,
{4}
6<1[2:1],B2,B3,3>8[2:1],B7,B6,6<1[2:1],B2,B3,3>8[2:1],B7,B6,
{4}
7<4[2:1],B2,B3,2>5[2:1],B7,B6,7<4[2:1],B2,B3,2>5[2:1],B7,B6,
{8}
6hx[1:1],,5,5,,5,4,,3hx[1:1],,4,4-8[8:1],,,,,
{8}
7hx[1:1],,5,5,,5,4,,3x,2h[2:1],,4-8[8:1]b,,,,,
{8}
7-4[12:1]/8-3[12:1],1/6,7b/8b,,2-5[12:1]/1-6[12:1],8/3,2b/1b,,
{4}
4>2[8:1]/5p1[8:1],5<7[8:1]/4q8[8:1],
{8}
4/5,,7hx[8:1],6hx[8:15],
{1}
3hx[4:7],,
{8}
1<7[12:1],2p6[8:1],1,2,1q5[8:1],2>4[12:1],1,2,
{8}
6-1[8:1],3-8[8:1],6<3[4:1]b,3,6,,,,
{8}
8>2[12:1],7q3[8:1],8,7,8p4[8:1],7<5[12:1],8,7,
{8}
3-8[8:1],6-1[8:1],3<6[4:1]b,6,3,,7hx[1:1],,
{24}
D7,A6,D6,,,,D3,A3,D4,,,,B7,B6,B5,,,,B2,B3,B4,,,,
{4}
1-7[12:1]b/2-6[12:1]b,1-5[12:1]b/2-4[12:1]b,1/2,
{4}
Chf[4:1],E5/B4/B5/B3/B6/E3/E7/B2/B7,,8hbx[4:1]/B4/B5/E5f,,
{32}
1b/8b,2/7,3/6,4/5,,,,,1b/8b,2/7,3/6,4/5,,,,,1b/8b,2/7,3/6,4h[16:3]/5h[16:3],
{8}
,,,
{16}
3/4,,5,5,2,,6,,3/4,,5,5,2,,6,,
{16}
1-5[8:1],,8-4[8:1],,1<4[4:1],,8,,1,,,,7bx,,,,
{16}
6/5,,4,,7,,2,,6/5,,4,4,7,,3,,
{16}
8-4[8:1],,1-5[8:1],,8<4[4:1],,1,,8,,,,
{4}
2bx-4[8:1]v5[8:1]-7[8:1],7,7-5[8:1]v4[8:1]-2[8:1],1,1,
{4}
1s5[4:1],5pp5[4:1]*qq5[4:1],,,
{2}
2hb[4:1]/B5/B6/E6f,7hb[4:1]/B4/B3/E4f,
{4}
4>2[8:1]/5p1[8:1],4q8[8:1]/5<7[8:1],4/5,,
{16}
4/7,,6,5,6,,
{8}
4,3/5,4,1/2,8,3,3,6,6,A7/E7/A2/E3,,D1/E1/B1/B8,
,
{16}
3/6,,4,5,4,,
{8}
6,7/8,1,2/8,3,6,6,3,3,
{4}
4-1[12:1]/5-8[12:1],4/5,
{16}
1/6,,7,8,7,,
{8}
1,2/8,3,1/7,6,3,3,5,5,
{4}
2V48[4:1]/7V51[4:1],2/7,
{8}
,5-1[12:1]/4-2[12:1],7/3,5/4,,5/4-8[12:1],2/6,4/5,
{4}
7bx-4[8:1],2bx-5[8:1]/7,2/8bxw4[8:1]b,8bx,
{4}
6hx[1:2],B2/B3/E3f,,
{8}
,E1,,E3,,E5,,B6,B7,C,
{4}
3hx[1:2],B7/B6/E7f,,
{8}
,E1,,E7,,E5,,B3,B2,C,
{4}
6hx[1:2],B2/B3/E3f,,
{8}
,B1/B8,,B2/B3,,B4/B5,,B6,B7,8x,
{4}
8w4[12:1]b,,1w5[12:1]b,,
{4}
8-3[12:1]*-5[12:1],8-4[12:1]b,8,Ch[4:1],
{4}
6<3[8:7]>6[8:7],4,4,,4,4,,3,3>6[8:7]<3[8:7],,5,5,,5,5,,
{4}
6<3[4:3],6,,4,4x,3x,5x,5x,
{8}
6hx[1:1],,5,5,,5,4,,3hx[1:1],,4,4-8[8:1],,,,,
{8}
7hx[1:1],,5,5,,5,4,,3x,2x-5[12:1]>4[24:1]-8[8:1]b,,6h[8:3],,,,,
{8}
1x>3[12:1]b/6x>4[12:1]b,7/8,1/6,,8x<6[12:1]b/3x<5[12:1]b,2/1,8/3,,
{4}
4x-1[12:1]/5x,4x/5x-8[12:1],4x/5x,
{8}
A8/A1/B8/B1,A2/A7/B2/B7,Chf[2:3],,
{4}
,,,E8,E7,E6,
{16}
5b,4b,5b,4b,
{8}
6<8[12:1],5q1[12:1],6,5,4p8[12:1],3>1[12:1],4,3,
{8}
5pp1[3:1],5,4,3,2x-4[12:1]*-6[12:1]b,,Cf,,
{8}
7<5[12:1],8p4[12:1],7,8,1q5[12:1],2>4[12:1],1,2,
{8}
7-3[12:1],7,2-6[12:1],2,8x-4[12:1]b*-5[12:1],,Cf,,
{32}
A5,E6,E7,A7,,,,,A4,E4,E3,A2,,,,,E6,B6,B7,E8,,,,,E4,B3,B2,E2,,,,,
{8}
1/8,2v3[8:1]/7v6[8:1],3qq5[8:3]/6pp4[8:3],,,,,,
{2}
7hb[4:1]/B3/B4/E4f,2hb[4:1]/B6/B5/E6f,
{4}
5b-7[12:1],2/5b-3[12:1],5bw1[12:1]/8,
{24}
5b,Cf,,,,,
{16}
3/7,,4,4,5,,2,,3/7,,4,4,5,,2,,
{8}
7-5[12:1],8-4[12:1],7>5[3:1],8,7-3[12:1],,7b,,
{16}
6/2,,5,5,4,,7,,6/2,,5,5,4,,7,,
{8}
2-4[12:1],1-5[12:1],2<4[3:1],1,2-6[12:1],,
{4}
2b-4[8:1]v5[8:1]-7[8:1],7,7-5[8:1]v4[8:1]-2[8:1],1,1,
{8}
1s5[4:1],1,5pp5[4:1]*qq5[4:1],,,,,,
{16}
4b/7b,,6,5,6,,3,,5b/2b,,3,4,3-1[12:1],,6,,
{4}
3/6b-8[12:1],3b-1[12:1]/6,3b/6,5<3[4:3],1h[4:3],,,
{8}
,4,2/5,3,4/7,6,3-8[12:1]/6-1[12:1],,E1f,,
{16}
4/7,,3,3,5,,2h[8:3],,6,,,,6,,
{8}
5,2/4,3,5/7,6,4-2[12:1]/5-7[12:1],,4/5,,
{16}
5/2,,6,6,4,,7h[8:3],,3,,,,3,,
{8}
2,1/6,7,3/8,2,1v4[12:1]/7v4[12:1],,1/7,,
{8}
5bpp5[4:1],4/6,5,,4bz8[16:3]b,3/5,4,,
{8}
5bqq5[4:1],4/6,5,,8bz4[16:3]b,1/7,8,,
{8}
3b>8[12:1]b*-8[12:1],5,3,,6b<1[12:1]b*-1[12:1],4,6,,
{1}
4bqq5[2:1]/5bpp4[2:1],
{8}
4hb[4:1]/8hb[4:1],,,3hb[4:1]/7hb[4:1],,,2hb[4:1]/6hb[4:1],,,
{8}
5hb[4:1]/1hb[4:1],,,4b/8b,,4hb[2:3]/8b,,
{8}
A7,,A1,,A6,A2,A5,A3,,,C,,,
